<?xml version="1.0" standalone="no"?>
<!DOCTYPE svg PUBLIC "-//W3C//DTD SVG 1.1//EN" "http://www.w3.org/Graphics/SVG/1.1/DTD/svg11.dtd" >
<svg xmlns="http://www.w3.org/2000/svg">
<metadata>
<json>
<![CDATA[
{
	"fontFamily": "supermapol-icons",
	"majorVersion": 3,
	"minorVersion": 8,
	"version": "Version 3.8",
	"fontId": "supermapol-icons",
	"psName": "supermapol-icons",
	"subFamily": "Regular",
	"fullName": "supermapol-icons",
	"description": "Font generated by IcoMoon."
}
]]>
</json>
</metadata>
<defs>
<font id="supermapol-icons" horiz-adv-x="1024">
<font-face units-per-em="1024" ascent="960" descent="-64" />
<missing-glyph horiz-adv-x="1024" />
<glyph unicode="&#x20;" horiz-adv-x="512" d="" />
<glyph unicode="&#xe900;" glyph-name="save" data-tags="保存" d="M718.171 819.204h-500.12c-46.378 0-83.98-36.945-83.98-82.495v-577.462c0-45.55 37.601-82.495 83.98-82.495h587.855c46.422 0 83.98 36.945 83.98 82.495v491.255l-171.714 168.702zM511.432 156.103c-69.568 0-125.991 55.419-125.991 123.763 0 68.301 56.422 123.72 125.991 123.72s125.991-55.419 125.991-123.72c0-68.346-56.422-123.763-125.991-123.763zM637.86 569.274h-419.897v164.99h419.897v-164.99z" />
<glyph unicode="&#xe901;" glyph-name="baselayer" data-tags="底图" d="M511.932 823.467c-206.985 0-375.398-168.414-375.398-375.467s168.414-375.467 375.398-375.467c207.121 0 375.535 168.414 375.535 375.467s-168.414 375.467-375.535 375.467zM320.99 284.092c0 11.605-11.196 51.883-11.196 86.357 0 34.543-51.2 33.929-51.2 79.872 0 41.37 27.785 61.918 21.504 81.715-6.076 19.797-54.955 20.48-75.298 22.938 35.567 105.813 119.262 184.252 220.16 200.226-6.622-14.746-24.098-20.753-34.679-31.812-23.074-24.030-33.041-20.685-45.534-43.759-12.493-22.938-52.907-56.115-52.907-72.704 0-16.657 20.412-36.25 30.583-32.495 10.172 3.891 37.137 3.686 52.975-2.662 15.838-6.417 132.301-12.834 95.232-125.542-11.742-35.908-63.351-29.901-77.005-89.225-2.048-8.738-9.148-45.875-9.694-58.095-0.819-18.842 11.605-89.839-4.233-89.839-15.906 0-58.709 63.488-58.709 75.025v0zM508.723 140.8c-34.679 0-67.925 4.847-99.123 13.79 18.91 8.602 20.821 19.661 37.956 20.343 19.729 0.683 35.703 6.485 57.754 10.718 19.729 3.618 54.886 20.821 85.879 23.006 26.078 1.775 77.551-1.229 91.477-22.801-49.971-28.535-109.705-45.056-173.943-45.056v0zM760.559 277.333c-10.377 8.806-21.367 32.495-10.991 57.139 10.445 24.781 13.175 82.057 10.854 104.311-2.321 22.323-13.039 75.981-42.052 76.527-29.013 0.41-48.879 10.854-66.082 48.128-35.703 77.551 67.106 92.501 31.334 135.441-10.035 12.015-61.645-49.63-69.154 32.563-0.546 5.803 4.642 14.609 11.537 23.757 112.162-40.892 193.195-155.853 193.195-291.089 0-70.178-21.914-134.963-58.573-186.778h-0.068z" />
<glyph unicode="&#xe902;" glyph-name="marker" data-tags="点" d="M512 891.733c-169.643 0-307.2-149.026-307.2-316.962 0-199.612 307.2-570.505 307.2-570.505s307.2 370.893 307.2 570.505c0 167.936-137.557 316.962-307.2 316.962zM682.667 584.533c0-94.208-76.39-170.667-170.667-170.667s-170.667 76.459-170.667 170.667c0 94.276 76.39 170.667 170.667 170.667s170.667-76.39 170.667-170.667z" />
<glyph unicode="&#xe903;" glyph-name="uncheck" data-tags="多选_未选中" horiz-adv-x="1022" d="M799.668 852.533h-577.788c-63.898 0-115.588-51.792-115.588-115.588v-577.839c0-63.796 51.69-115.588 115.588-115.588h577.839c63.796 0 115.588 51.792 115.588 115.588v577.839c-0.051 63.796-51.844 115.588-115.639 115.588z" />
<glyph unicode="&#xe904;" glyph-name="checked" data-tags="多选_选中" horiz-adv-x="1022" d="M801.354 852.533h-577.788c-63.898 0-115.588-51.792-115.588-115.588v-577.839c0-63.796 51.69-115.588 115.588-115.588h577.839c63.796 0 115.588 51.792 115.588 115.588v577.839c-0.051 63.796-51.844 115.588-115.639 115.588zM461.229 250.892l-236.693 236.744 55.623 55.674 181.121-147.154 280.211 252.935 58.943-58.943-339.205-339.256z" />
<glyph unicode="&#xe905;" glyph-name="zoom-in" data-tags="放大" horiz-adv-x="1022" d="M787.46 530.745h-230.308v225.711c0 53.274-36.98 96.434-82.388 96.434-45.561 0-82.439-43.16-82.439-96.434v-225.711h-230.308c-54.040 0-97.711-37.082-97.711-82.694 0-45.765 43.671-82.745 97.711-82.745h230.308v-225.66c0-53.274 36.929-96.485 82.439-96.485 45.459 0 82.388 43.211 82.388 96.485v225.66h230.308c53.989 0 97.66 37.031 97.66 82.745 0 45.612-43.671 82.694-97.66 82.694z" />
<glyph unicode="&#xe906;" glyph-name="clear" data-tags="关闭" d="M887.814 738.035l-83.467 83.514-292.3-292.394-292.3 292.394-83.514-83.514 292.3-292.347-292.3-292.394 83.514-83.514 292.3 292.442 292.3-292.442 83.467 83.514-292.3 292.394z" />
<glyph unicode="&#xe907;" glyph-name="setting" data-tags="管理" d="M512 522.303c-40.722 0-73.806-32.969-73.806-73.69 0-40.645 33.082-73.69 73.806-73.69 40.798 0 73.845 33.046 73.845 73.69 0 40.684-33.046 73.69-73.845 73.69zM895.918 404.362v88.467h-56.918c-3.875 28.172-11.054 55.307-21.609 80.674l49.202 28.4-44.214 76.607-50.241-28.862c-17.194 21.645-37.153 40.99-59.296 57.646l29.438 51.044-76.683 44.214-30.052-52.082c-25.062 9.749-51.62 16.58-79.178 19.882v61.447h-88.582v-63.136c-26.982-4.185-52.889-11.246-77.183-21.57l-32.124 55.46-76.721-44.214 32.854-56.804c-20.571-16.504-38.956-35.465-54.998-56.381l-57.838 33.353-44.29-76.607 58.375-33.658c-9.478-23.91-16.159-49.164-19.69-75.416h-67.971v-88.467h67.971c3.53-26.253 10.209-51.506 19.69-75.416l-58.375-33.658 44.29-76.529 57.878 33.353c16.042-20.916 34.387-39.877 54.998-56.457l-32.854-56.804 76.683-44.214 32.124 55.535c24.294-10.364 50.202-17.464 77.183-21.609v-63.175h88.582v61.486c27.597 3.299 54.116 10.133 79.178 19.882l30.052-52.082 76.683 44.175-29.477 51.044c22.146 16.657 42.102 36.039 59.296 57.725l50.241-28.862 44.214 76.529-49.202 28.4c10.556 25.406 17.77 52.541 21.609 80.674h56.957zM511.769 257.289c-106.006 0-191.9 85.741-191.9 191.516 0 105.854 85.894 191.669 191.9 191.669s191.939-85.819 191.939-191.669c0-105.736-85.933-191.516-191.939-191.516z" />
<glyph unicode="&#xe908;" glyph-name="zoom-to" data-tags="面" horiz-adv-x="1022" d="M825.329 822.054h-252.712v-63.002h252.712v-251.3h63.002v314.302zM825.329 129.978h-252.712v-63.002h315.714v315.714h-63.002zM133.206 822.054v-314.302h63.002v251.3h251.3v63.002h-251.3zM196.208 382.692h-63.002v-315.714h314.302v63.002h-251.3zM699.138 507.752h-126.521v123.272h-125.109v-123.272h-125.062v-125.062h125.062v-122.471h125.109v122.471h126.521z" />
<glyph unicode="&#xe909;" glyph-name="default-layer" data-tags="默认底图" d="M869.707 794.539h-529.611c-24.467 0-44.191-19.284-44.191-43.027v-324.403c12.334 0 27.358 0 44.191 0v259.282h529.611v-365.501h-55.761c8.397-17.756 13.739-32.743 13.739-32.743-3.253-3.696-6.588-6.869-9.922-10.366h51.946c24.265 0 44.070 19.284 44.070 43.106v430.621c0 23.743-19.766 43.027-44.070 43.027zM749.628 310.283c0 0-12.695 11.088-19.122 12.413-6.467 1.447-6.467 1.447-9.681 0.844-16.794-2.934-38.366-37.323-74.040-63.032h-179.898c-11.288 9.883-21.373 20.891-29.487 33.463h99.592c0 0 28.402-1.848 28.402 20.327 0 22.257 0 55.561 0 55.561s1.808 27.759-28.402 27.759c-9.883 0-64.56 0-123.534 0h-22.818c-19.284 0-38.285 0-56.003 0-18.841 0-35.794 0-49.654 0-20.729 0-34.428 0-34.428 0v-236.865c0 0 193.476-59.176 261.691-59.176 0 0 159.852-6.588 273.383 110.479 3.696 3.856 7.553 7.47 11.088 11.569 0 0-5.906 16.953-15.429 36.84-8.276 17.395-19.284 37.081-31.658 49.815zM110.262 101.581h98.627v325.528h-98.627v-325.528z" />
<glyph unicode="&#xe90a;" glyph-name="group" data-tags="群组" horiz-adv-x="1026" d="M678.909 488.759c68.397 0 123.712 54.702 123.712 122.141 0 67.515-55.279 122.179-123.712 122.179-68.243 0-123.637-54.664-123.637-122.179 0-67.438 55.394-122.141 123.637-122.141zM349.161 488.759c68.32 0 123.712 54.702 123.712 122.141 0 67.515-55.354 122.179-123.712 122.179-68.243 0-123.712-54.664-123.712-122.179 0.039-67.438 55.469-122.141 123.712-122.141zM349.161 399.302c-245.584 0-288.588-125.631-288.588-125.631v-110.709h577.136v110.709c0 0-36.557 125.631-288.548 125.631zM642.889 407.319c-1.955 0.039-3.835 0.039-5.754 0.039l0.613-0.039c0 0 67.899-47.836 77.335-112.014l4.948-132.343h247.542v110.709c-0.039 0-18.259 123.597-324.685 133.649z" />
<glyph unicode="&#xe90b;" glyph-name="delete" data-tags="删除" d="M608.15 735.986v48.094c0 26.543-21.588 48.055-48.055 48.055h-96.15c-26.543 0-48.055-21.512-48.055-48.055v-48.094h-240.354v-48.055h672.926v48.055h-240.315zM560.094 735.986h-96.15v48.094h96.15v-48.094zM223.59 591.782v-432.575c0-53.126 43.062-96.15 96.15-96.15h384.52c53.126 0 96.15 43.024 96.15 96.15v480.667h-576.815v-48.094zM608.15 351.466v192.26h96.11v-384.52h-96.11v192.26zM463.945 351.466v192.26h96.15v-384.52h-96.15v192.26zM319.74 351.466v192.26h96.15v-384.52h-96.15v192.26z" />
<glyph unicode="&#xe90c;" glyph-name="up" data-tags="上移" horiz-adv-x="949" d="M474.649 817.361l-267.518-354.684h138.487v-391.047h258.064v391.047h138.44z" />
<glyph unicode="&#xe90d;" glyph-name="warning" data-tags="设置" d="M506.228 832.756c-212.155-2.923-381.754-177.18-378.948-389.49 2.81-212.155 177.103-381.833 389.181-379.062 212.118 2.849 381.794 177.18 378.984 389.411-2.81 212.155-177.14 381.911-389.219 379.141zM548.783 704.632c39.052 0 50.596-22.625 50.596-48.557 0-32.396-25.972-62.293-70.102-62.293-37.014 0-54.597 18.62-53.598 49.366 0.039 25.933 21.74 61.485 73.104 61.485zM448.708 208.335c-26.701 0-46.325 16.16-27.626 87.379l30.666 126.317c5.27 20.2 6.156 28.319 0 28.319-8.041 0-42.669-13.966-63.178-27.741l-13.31 21.932c64.946 54.252 139.59 86.031 171.564 86.031 26.663 0 31.128-31.551 17.773-80.186l-35.012-132.779c-6.234-23.508-3.578-31.626 2.654-31.626 8.041 0 34.244 9.773 60.022 30.050l15.122-20.277c-63.139-63.139-131.972-87.419-158.673-87.419z" />
<glyph unicode="&#xe90e;" glyph-name="retract" data-tags="收起面板" d="M177.968 100.19h705.402v94.054h-705.402v-94.054zM516.468 655.153l285.782-285.782 83.096 83.096-368.878 368.925-383.88-383.88 83.096-83.144 300.783 300.783z" />
<glyph unicode="&#xe90f;" glyph-name="search" data-tags="搜索" d="M852.6 211.275l-126.491 131.308c0 0.078-0.078 0.078-0.078 0.078l-20.036 20.769c27.858 47.043 44.308 102.026 44.308 161.283 0 170.994-133.504 309.506-298.139 309.506-164.712 0-298.216-138.551-298.216-309.506s133.504-309.584 298.216-309.584c42.227 0 82.029 9.71 118.362 26.278l60.492-62.765c0.078-0.078 0.078-0.153 0.153-0.153l0.772-0.809 94.126-97.672c23.273-24.235 61.029-24.235 84.341 0l42.152 43.732c23.273 24.198 23.273 63.341 0.039 87.538zM452.163 338.925c-98.867 0-178.891 83.146-178.891 185.787 0 102.566 79.987 185.712 178.891 185.712 98.789 0 178.891-83.146 178.891-185.712 0-102.641-80.064-185.787-178.891-185.787z" />
<glyph unicode="&#xe910;" glyph-name="triangle-old" data-tags="图层弹窗三角" horiz-adv-x="1022" d="M383.1 320.275h255.4v255.4z" />
<glyph unicode="&#xe911;" glyph-name="zoom-out" data-tags="缩小" horiz-adv-x="1022" d="M823.469 529.264h-625.444c-53.938 0-97.66-36.468-97.66-81.264 0-44.949 43.722-81.366 97.66-81.366h625.444c53.99 0 97.763 36.417 97.763 81.366 0 44.846-43.773 81.264-97.763 81.264z" />
<glyph unicode="&#xe912;" glyph-name="layers" data-tags="所有底图" horiz-adv-x="1026" d="M877.795 585.622l-364.987 249.813-364.904-249.813 364.904-249.813 364.987 249.813zM512.808 280.039l-322.080 212.388-42.787-44.403 364.904-249.813 364.987 249.813-43.367 45.365-321.656-213.35zM512.808 142.434l-322.080 212.424-42.787-44.482 364.904-249.813 364.987 249.813-43.367 45.449-321.656-213.386z" />
<glyph unicode="&#xe913;" glyph-name="add-old" data-tags="添加图层" d="M849.133 511.463h-272.301v272.254c0 35.813-29.018 38.88-64.832 38.88s-64.832-3.067-64.832-38.88v-272.301h-272.301c-35.813 0-38.88-29.018-38.88-64.832s3.067-64.832 38.88-64.832h272.301v-272.301c0-35.813 29.018-38.88 64.832-38.88s64.832 3.067 64.832 38.88v272.301h272.301c35.813 0 38.88 29.018 38.88 64.832s-3.114 64.879-38.88 64.879z" />
<glyph unicode="&#xe914;" glyph-name="brush" data-tags="图层样式" d="M910.175 797.952c0 0-21.058 10.55-161.48-92.684 0 0-143.488-119.802-243.166-201.936-42.803 9.419-61.601-22.354-61.601-22.354-39.488-33.265-23.364-55.257-31.165-61.719-21.223-17.544-34.397-28.373-34.397-28.373l130.19-131.892c0 0 5.984 10.711 28.256 37.835 32.416 0.124 59.579 28.256 59.579 28.256s24.009 47.29 12.893 60.145c82.86 101.009 190.943 229.506 190.943 229.506 44.017 57.033 121.017 182.010 109.943 183.224zM238.479 232.281c0-123.199-131.489-106.587-131.489-106.587s266.77-149.19 381.802 115.642l-122.431 121.786c0 0-127.888-7.56-127.888-130.839z" />
<glyph unicode="&#xe915;" glyph-name="eye-closed" data-tags="已隐藏icon" d="M662.464 673.804l94.272 94.208 90.496-90.496-588.352-588.352-90.496 90.496 87.616 87.68c-120.384 73.536-192 174.528-192 174.528s248.832 368.064 598.464 231.936zM343.872 355.212l260.928 260.928c-27.52 15.168-59.136 23.872-92.8 23.872-105.984 0-192-85.952-192-192 0-33.664 8.64-65.344 23.872-92.8zM816.768 583.052c46.592-36.8 94.464-83.328 143.232-141.184-197.76-223.616-379.968-269.376-527.744-243.328l58.624 58.624c6.912-0.768 13.952-1.152 21.12-1.152 105.984 0 192 85.952 192 192 0 7.104-0.384 14.208-1.152 21.12l113.92 113.92z" />
<glyph unicode="&#xe916;" glyph-name="down" data-tags="下移" horiz-adv-x="949" d="M474.713 39.33l-290.477 385.124h150.372v424.607h280.211v-424.607h150.321z" />
<glyph unicode="&#xe917;" glyph-name="line" data-tags="线" d="M824.977 802.462c-57.6 50.827-145.552 45.301-196.379-12.26-44.599-50.592-45.767-124.497-6.419-176.181l-261.41-296.282c-56.197 32.574-129.325 22.184-174.001-28.371-50.827-57.638-45.301-145.513 12.338-196.418 57.6-50.827 145.552-45.301 196.379 12.338 44.444 50.401 45.806 123.952 6.926 175.636l261.567 296.398c56.118-32.108 128.894-21.561 173.341 28.8 50.827 57.6 45.301 145.552-12.338 196.34zM345.005 187.601c-5.060-30.317-33.742-50.749-64.059-45.689-30.238 5.099-50.788 33.782-45.65 64.098 5.060 30.278 33.742 50.788 64.059 45.65 30.317-5.060 50.788-33.742 45.65-64.059zM787.81 688.276c-5.060-30.317-33.742-50.788-64.059-45.728-30.317 5.138-50.788 33.821-45.728 64.138 5.138 30.238 33.821 50.788 64.138 45.65 30.238-5.060 50.749-33.742 45.65-64.059z" />
<glyph unicode="&#xe918;" glyph-name="pen" data-tags="修改样式" d="M137.606 74.37l192.469 71.655-119.362 119.362-73.107-191.018zM872.377 706.357l-101.22 101.334c-18.639 18.602-48.928 18.602-67.608 0l-405.258-405.221c-18.639-18.639-76.314-82.657-57.676-101.257l125.166-125.166c18.639-18.677 82.731 38.96 101.373 57.637l405.221 405.142c18.716 18.677 18.716 48.892 0 67.53zM594.006 500.406l-33.804 33.804 170.317 170.317 33.804-35.254-170.317-168.863z" />
<glyph unicode="&#xe919;" glyph-name="user" data-tags="用户" horiz-adv-x="1022" d="M507.846 451.215c103.922 0 188.102 84.869 188.102 189.479 0 104.649-84.178 189.518-188.102 189.518-103.884 0-188.102-84.869-188.102-189.518s84.217-189.479 188.102-189.479zM510.373 348.515c-325.316 0-382.173-168.435-382.173-168.435v-114.292h764.425v114.292c0 0-48.479 168.435-382.251 168.435z" />
<glyph unicode="&#xe91a;" glyph-name="down-end" data-tags="置底" horiz-adv-x="949" d="M745.791 69.946h-542.189v63.291h224.555l-223.708 290.811h139.853v394.948h260.601v-394.948h139.853l-223.802-290.811h224.838z" />
<glyph unicode="&#xe91b;" glyph-name="up-end" data-tags="置顶" horiz-adv-x="1022" d="M751.487 820.502h-542.189v-63.291h224.555l-223.661-290.811h139.806v-394.948h260.601v394.948h139.9l-223.849 290.811h224.838z" />
<glyph unicode="&#xe91c;" glyph-name="text" data-tags="重命名" horiz-adv-x="1022" d="M170.667 789.333h682.667v-136.533h-682.667v136.533zM443.733 652.8h136.533v-546.133h-136.533v546.133z" />
<glyph unicode="&#xe91d;" glyph-name="customize" data-tags="自定义底图" d="M717.44 292.138c-3.914 122.827-29.662 216.874-196.574 216.874-166.34 0-192.738-75.63-196.613-216.874h65.346c6.79 29.967 16.806 55.178 30.622 74.863l-1.458-128.544h208.203l-1.765 121.138c11.551-18.573 20.489-40.942 26.629-67.458h65.616zM522.054 516.069c48.616 0 87.986 39.293 87.986 87.794s-39.368 87.87-87.986 87.87-88.025-39.368-88.025-87.87 39.406-87.794 88.025-87.794zM511.886 831.596c-211.808 0-383.596-171.442-383.596-382.83s171.786-382.866 383.596-382.866c211.847 0 383.634 171.442 383.634 382.866s-171.749 382.83-383.634 382.83zM512.231 151.083c-164.918 0-298.603 133.454-298.603 298.105 0 164.573 133.685 298.029 298.603 298.029 164.996 0 298.681-133.454 298.681-298.029 0-164.69-133.685-298.105-298.681-298.105z" />
<glyph unicode="&#xe91e;" glyph-name="polygon" data-tags="面" d="M350.007 623.871c47.35 53.687 42.219 135.558-11.468 182.908-53.687 47.31-135.558 42.219-182.908-11.468-47.31-53.648-42.219-135.519 11.468-182.869 17.57-15.512 38.214-24.841 59.711-29.234v-265.516c-26.667-5.444-51.822-18.738-71.179-40.702-47.31-53.687-42.219-135.558 11.468-182.908 53.687-47.428 135.48-42.219 182.908 11.468 47.35 53.609 42.219 135.519-11.468 182.83-17.649 15.55-38.41 24.919-59.907 29.234v265.516c26.706 5.405 51.975 18.778 71.375 40.742zM303.902 182.095c-4.703-28.262-31.449-47.31-59.672-42.529-28.262 4.703-47.31 31.449-42.529 59.672 4.703 28.223 31.488 47.232 59.672 42.529 28.145-4.703 47.31-31.41 42.529-59.672zM254.801 657.226h-0.233c-3.382-0.118-6.843 0.118-10.378 0.7-28.262 4.703-47.31 31.449-42.529 59.672 4.703 28.223 31.488 47.31 59.672 42.529 28.184-4.703 47.31-31.449 42.529-59.672-4.044-24.723-24.998-42.373-49.060-43.23zM796.994 317.612v265.516c26.706 5.444 51.975 18.778 71.375 40.781 47.31 53.687 42.219 135.558-11.507 182.908-53.648 47.31-135.558 42.219-182.869-11.468-15.666-17.766-25.114-38.68-29.352-60.374h-260.695v-51.861h260.813c5.597-26.436 18.856-51.394 40.663-70.635 17.57-15.512 38.253-24.841 59.711-29.234v-265.477c-26.628-5.482-51.822-18.778-71.14-40.781-15.666-17.766-25.114-38.719-29.391-60.413h-260.656v-51.822h260.813c5.597-26.436 18.856-51.394 40.663-70.597 53.726-47.467 135.519-42.298 182.947 11.39 47.31 53.687 42.219 135.598-11.507 182.908-17.61 15.55-38.37 24.841-59.868 29.156zM720.058 717.6c4.703 28.223 31.488 47.31 59.672 42.529 28.262-4.703 47.31-31.449 42.529-59.672-4.044-24.685-25.076-42.336-49.137-43.191h-0.233c-3.382-0.118-6.843 0.118-10.339 0.7-28.223 4.664-47.232 31.372-42.49 59.633zM822.224 182.095c-4.703-28.262-31.488-47.31-59.672-42.529-28.302 4.703-47.31 31.449-42.607 59.672 4.782 28.223 31.527 47.232 59.711 42.529s47.389-31.41 42.568-59.672z" />
<glyph unicode="&#xe91f;" glyph-name="open" data-tags="打开面板" d="M399.754 832v-768l496.246 384-496.246 384zM128 64h177.231v768h-177.231v-768z" />
<glyph unicode="&#xe920;" glyph-name="overlay" data-tags="地图服务图层" d="M136.533 699.358l182.067 55.842 312.866-55.842 256 55.842v-546.133l-256-68.267-312.866 55.842-182.067-55.842v558.558zM341.333 686.933v-424.755l273.067-53.111v424.755l-273.067 53.111z" />
<glyph unicode="&#xe921;" glyph-name="point-layer" data-tags="点图层" d="M580.267 482.133c94.276 0 170.667 76.39 170.667 170.667s-76.39 170.667-170.667 170.667c-94.276 0-170.667-76.39-170.667-170.667s76.39-170.667 170.667-170.667zM307.2 277.333c56.525 0 102.4 45.875 102.4 102.4s-45.875 102.4-102.4 102.4c-56.525 0-102.4-45.875-102.4-102.4s45.875-102.4 102.4-102.4zM716.8 140.8c56.525 0 102.4 45.875 102.4 102.4s-45.875 102.4-102.4 102.4c-56.525 0-102.4-45.875-102.4-102.4s45.875-102.4 102.4-102.4z" />
<glyph unicode="&#xe922;" glyph-name="hamburg" data-tags="汉堡包" d="M128 384h768v128h-768v-128zM128 128h768v128h-768v-128zM128 768v-128h768v128h-768z" />
<glyph unicode="&#xe923;" glyph-name="triangle" data-tags="扩展三角" d="M339.2 275.2h345.6v345.6z" />
<glyph unicode="&#xe924;" glyph-name="polygon-layer" data-tags="面图层" d="M335.531 686.933c-10.308-29.082-33.382-52.156-62.464-62.464v-352.939c29.082-10.308 52.156-33.382 62.464-62.464h352.939c10.308 29.082 33.382 52.156 62.464 62.464v352.939c-29.082 10.308-52.156 33.382-62.464 62.464h-352.939zM335.531 755.2h352.939c14.063 39.799 52.019 68.267 96.597 68.267 56.525 0 102.4-45.875 102.4-102.4 0-44.578-28.467-82.534-68.267-96.597v-352.939c39.799-14.063 68.267-52.019 68.267-96.597 0-56.525-45.875-102.4-102.4-102.4-44.578 0-82.534 28.467-96.597 68.267h-352.939c-14.063-39.799-52.019-68.267-96.597-68.267-56.525 0-102.4 45.875-102.4 102.4 0 44.578 28.467 82.534 68.267 96.597v352.939c-39.799 14.063-68.267 52.019-68.267 96.597 0 56.525 45.875 102.4 102.4 102.4 44.578 0 82.534-28.467 96.597-68.267z" />
<glyph unicode="&#xe925;" glyph-name="close" data-tags="收起面板" d="M624.246 64v768l-496.246-384 496.246-384zM718.769 832v-768h177.231v768h-177.231z" />
<glyph unicode="&#xe926;" glyph-name="add" data-tags="添加图层" d="M857.6 512h-281.6v281.6c0 38.4-25.6 38.4-64 38.4s-64 0-64-38.4v-281.6h-281.6c-38.4 0-38.4-25.6-38.4-64s0-64 38.4-64h281.6v-275.2c0-44.8 25.6-44.8 64-44.8s64 0 64 38.4v281.6h275.2c44.8 0 44.8 25.6 44.8 64s0 64-38.4 64z" />
<glyph unicode="&#xe927;" glyph-name="more" data-tags="下拉三角" d="M288 576l224-256 224 256z" />
<glyph unicode="&#xe928;" glyph-name="line-layer" data-tags="线图层" d="M338.924 323.168c-38.025 18.227-85.060 11.537-116.531-20.002-40.004-40.004-40.004-104.789 0-144.794 39.936-40.004 104.789-40.004 144.794 0 31.539 31.539 38.229 78.507 20.002 116.531l297.916 297.916c38.025-18.227 84.992-11.537 116.531 20.002 40.004 40.004 40.004 104.789 0 144.794s-104.858 40.004-144.794 0c-31.539-31.539-38.229-78.507-20.070-116.531l-297.847-297.916z" />
<glyph unicode="&#xe929;" glyph-name="rest-api" data-tags="Web服务接口" horiz-adv-x="1330" d="M1241.907 960.41h-1153.679c-49.029 0-88.76-39.035-88.76-87.245v-850.371c0-48.169 39.731-87.204 88.76-87.204h1153.679c49.070 0 88.801 39.035 88.801 87.204v850.371c0 48.21-39.731 87.245-88.801 87.245zM1142.129 873.124c18.309 0 33.3-14.623 33.3-32.686s-14.95-32.686-33.3-32.686c-18.432 0-33.3 14.623-33.3 32.686s14.868 32.686 33.3 32.686zM1042.309 873.124c18.309 0 33.3-14.623 33.3-32.686s-14.95-32.686-33.3-32.686c-18.432 0-33.3 14.623-33.3 32.686s14.868 32.686 33.3 32.686zM942.449 873.124c18.309 0 33.3-14.623 33.3-32.686s-14.95-32.686-33.3-32.686c-18.432 0-33.3 14.623-33.3 32.686s14.868 32.686 33.3 32.686zM1241.907 22.794h-1153.679v697.795h1153.679v-697.795z" />
<glyph unicode="&#xe92a;" glyph-name="javascript-api" data-tags="Web开发" horiz-adv-x="1373" d="M403.907 32.215v149.299l-255.631 258.212 255.631 258.212v149.299l-403.374-407.511 403.374-407.511zM962.109 854.487v-148.931l260.219-257.556-260.219-257.556v-148.931l410.542 406.487-410.542 406.487zM821.699 955.986c-34.529 11.223-71.516-7.946-82.657-42.803l-237.158-889.651c-11.1-34.898 7.864-72.294 42.394-83.476 34.529-11.223 71.557 7.905 82.657 42.844l237.158 889.651c11.1 34.816-7.823 72.172-42.394 83.436z" />
<glyph unicode="&#xe92b;" glyph-name="desktop-dev" data-tags="桌面开发" horiz-adv-x="1416" d="M1180.058 56.463c65.208 0 118.006 53.903 118.006 120.463v662.61c0 66.847-53.125 120.463-118.006 120.463h-944.046c-65.495 0-118.006-53.617-118.006-120.463v-662.569c0-66.56 52.838-120.463 118.006-120.463h-236.012c0-66.56 52.838-120.504 118.006-120.504h1180.058c65.208 0 118.088 53.944 118.088 120.463h-236.093zM236.012 839.537h944.046v-662.569h-944.046v662.569zM708.035-3.748c-32.563 0-58.982 26.952-58.982 60.252s26.46 60.252 58.982 60.252c32.645 0 58.982-26.952 58.982-60.252s-26.337-60.252-58.982-60.252z" />
<glyph unicode="&#xe92c;" glyph-name="edit" data-tags="编辑" d="M957.901 689.152c19.968 20.019 19.968 53.248 0 72.192l-119.808 119.808c-18.944 20.019-52.275 20.019-72.192 0l-94.208-93.696 192-192zM51.149 166.4v-192h192l566.323 566.733-192 192-566.323-566.733z" />
<glyph unicode="&#xe92d;" glyph-name="home" data-tags="返回主页" d="M512 832l-460.8-406.579h138.24v-361.421h230.349v271.053h184.371v-271.053h230.4v361.421h138.24z" />
<glyph unicode="&#xe92e;" glyph-name="share" data-tags="分享" horiz-adv-x="1026" d="M797.245 337.596v-175h-568.751v175h-87.501v-262.501h743.751v262.501zM884.744 611.21l-263.42 207.638v-124.382c-319.945 0-392.832-313.119-392.832-313.119 90.519 141.226 219.188 154.788 392.832 154.788v-140.175l263.42 215.251z" />
<glyph unicode="&#xe92f;" glyph-name="back" data-tags="收起编辑面板" d="M173.466 718.285l475.341-475.341 68.198 68.198-475.341 475.341h173.568v96.717h-338.483v-338.483h96.717v173.568zM850.381 883.2h-338.432v-96.717h338.432v-677.018h-676.915v338.534h-96.717v-338.483c0-53.402 43.315-96.717 96.717-96.717h676.966c53.453 0 96.768 43.315 96.768 96.717v676.966c-0.051 53.197-43.11 96.717-96.819 96.717z" />
<glyph unicode="&#xe930;" glyph-name="unfold" data-tags="打开图标框" d="M512 422.4l224 230.4-51.2 51.2-172.8-172.8-172.8 172.8-51.2-51.2 224-230.4zM339.2 473.6l-51.2-51.2 224-230.4 224 230.4-51.2 51.2-172.8-172.8-172.8 172.8z" />
<glyph unicode="&#xe931;" glyph-name="fold" data-tags="收起图标框" d="M288 243.2l51.2-51.2 172.8 172.8 172.8-172.8 51.2 51.2-224 230.4-224-230.4zM512 595.2l172.8-172.8 51.2 51.2-224 230.4-224-230.4 51.2-51.2 172.8 172.8z" />
<glyph unicode="&#xe932;" glyph-name="right" data-tags="向右" d="M390.4 768l-70.4-76.8 236.8-243.2-236.8-243.2 70.4-76.8 313.6 320z" />
<glyph unicode="&#xe933;" glyph-name="left" data-tags="向左" d="M633.6 768l70.4-76.8-236.8-243.2 236.8-243.2-70.4-76.8-313.6 320z" />
<glyph unicode="&#xe934;" glyph-name="tag" data-tags="标签" d="M872.368 465.723l-342.646 342.646c-17.723 17.723-35.446 23.632-59.077 23.632h-265.846c-41.354 0-76.8-35.446-76.8-76.8v-271.754c0-23.632 5.909-41.354 23.632-53.168l342.646-348.554c17.723-11.814 35.446-17.723 53.168-17.723s41.354 5.909 53.168 23.632l265.846 271.754c23.632 11.814 29.538 29.538 29.538 53.168 0 17.723-5.909 35.446-23.632 53.168zM263.877 642.954c-29.538 0-59.077 23.632-59.077 59.077 0 29.538 23.632 59.077 59.077 59.077 29.538 0 59.077-23.632 59.077-59.077-5.909-35.446-29.538-59.077-59.077-59.077z" />
<glyph unicode="&#xe935;" glyph-name="new_home" data-tags="返回首页" d="M512 795.733l-401.231-369.133h123.044v-326.334h197.941v246.089h160.493v-246.089h197.941v326.334h123.044z" />
<glyph unicode="&#xe936;" glyph-name="update" data-tags="更新时间" d="M512 960c-283.569 0-512-228.431-512-512s228.431-512 512-512c283.569 0 512 228.431 512 512s-228.431 512-512 512zM708.923 172.308l-275.692 189.046v362.338h78.769v-315.077l236.308-157.538-39.385-78.769z" />
<glyph unicode="&#xe937;" glyph-name="info" data-tags="信息" d="M512 960c-281.6 0-512-230.4-512-512s230.4-512 512-512c281.6 0 512 230.4 512 512s-230.4 512-512 512zM563.2 192h-102.4v307.2h102.4v-307.2zM563.2 601.6h-102.4v102.4h102.4v-102.4z" />
<glyph unicode="&#xe938;" glyph-name="logo" data-tags="logo" horiz-adv-x="1336" d="M685.635 336.696l-111.304 44.522c-17.809-26.713-31.165-57.878-48.974-97.948l120.209-44.522 40.070 97.948zM650.017 514.783c-71.235 0-138.017-26.713-191.443-71.235l102.4-40.070c35.617 57.878 66.783 89.043 89.043 111.304zM690.087 358.957l53.426 142.47c-22.261 8.904-44.522 13.357-66.783 13.357-26.713-17.809-62.33-53.426-97.948-111.304l111.304-44.522zM819.2 287.722l-111.304 44.522-40.070-102.4 120.209-44.522c13.357 35.617 22.261 71.235 31.165 102.4zM779.13 163.061l-120.209 44.522-40.070-102.4 111.304-44.522c17.809 35.617 35.617 66.783 48.974 102.4zM485.287 158.609l111.304-44.522 40.070 102.4-120.209 44.522c-13.357-35.617-22.261-71.235-31.165-102.4zM939.409 265.461c-8.904 66.783-44.522 129.113-93.496 173.635 4.452-31.165 4.452-75.687-4.452-138.017l97.948-35.617zM823.652 309.983c13.357 66.783 8.904 115.757 4.452 146.922-17.809 13.357-35.617 22.261-57.878 35.617l-57.878-142.47 111.304-40.070zM609.948 91.826l-53.426-138.017c22.261-8.904 44.522-13.357 66.783-13.357 26.713 17.809 62.33 53.426 97.948 111.304l-111.304 40.070zM752.417 60.661l102.4-40.070c26.713 26.713 48.974 57.878 62.33 93.496l-120.209 44.522c-13.357-40.070-26.713-71.235-44.522-97.948zM654.47-64c71.235 0 133.565 26.713 186.991 71.235l-97.948 35.617c-35.617-53.426-66.783-89.043-89.043-106.852zM943.861 243.2l-106.852 40.070c-4.452-31.165-17.809-66.783-31.165-102.4l120.209-44.522c13.357 31.165 17.809 71.235 17.809 106.852zM360.626 185.322c8.904-66.783 44.522-133.565 97.948-178.087-4.452 31.165-8.904 75.687 4.452 138.017l-102.4 40.070zM480.835 136.348c-13.357-66.783-8.904-120.209-4.452-146.922 17.809-13.357 35.617-22.261 57.878-31.165l53.426 142.47-106.852 35.617zM552.070 390.122l-111.304 40.070c-26.713-26.713-48.974-57.878-62.33-93.496l124.661-44.522c13.357 35.617 31.165 71.235 48.974 97.948zM373.983 318.887c-13.357-35.617-17.809-75.687-13.357-111.304l106.852-40.070c4.452 31.165 17.809 66.783 31.165 102.4l-124.661 48.974zM1175.374 528.139c-8.904 129.113-115.757 235.965-249.322 235.965-22.261 0-44.522-4.452-62.33-8.904-40.070 120.209-151.374 204.8-284.939 204.8-146.922 0-267.13-102.4-293.843-240.417-155.826-8.904-284.939-138.017-284.939-293.843 0-151.374 115.757-276.035 262.678-293.843v0 0c26.713 0 48.974 22.261 48.974 48.974s-22.261 48.974-48.974 48.974v0 4.452c-97.948 13.357-169.183 97.948-169.183 195.896 0 106.852 84.591 195.896 195.896 195.896v0c8.904 0 17.809-4.452 26.713-4.452 31.165 0 57.878 26.713 57.878 57.878 0 4.452 0 13.357 4.452 22.261v0c17.809 93.496 102.4 169.183 200.348 169.183 102.4 0 186.991-75.687 204.8-173.635h4.452c8.904-22.261 31.165-40.070 53.426-40.070 8.904 0 22.261 4.452 31.165 8.904h4.452c17.809 4.452 35.617 8.904 53.426 8.904 84.591 0 155.826-66.783 155.826-151.374 0 0 0 0 0-4.452v0 0c0-4.452-4.452-8.904-4.452-13.357 0-26.713 22.261-48.974 53.426-48.974h4.452c62.33-4.452 111.304-53.426 111.304-111.304 0-62.33-53.426-115.757-115.757-115.757v0 0h-106.852c-22.261 0-40.070-22.261-40.070-44.522s17.809-44.522 40.070-44.522v0h102.4c0 0 0 0 4.452 0 111.304 0 204.8 89.043 204.8 200.348-4.452 89.043-75.687 169.183-164.73 186.991z" />
<glyph unicode="&#xe939;" glyph-name="select" data-tags="选择对象" horiz-adv-x="832" d="M631.6 492c0 35.2-70.4 26.4-70.4 26.4 0 35.2-70.4 26.4-70.4 26.4 0 35.2-70.4 26.4-70.4 26.4v158.4c-4.4 39.6-35.2 70.4-74.8 70.4s-70.4-30.8-70.4-70.4v-281.6c-176 176-140.8-35.2-140.8-35.2 105.6-70.4 176-316.8 176-316.8h286c0 35.2 105.6 211.2 105.6 246.4v123.2c0 35.2-70.4 26.4-70.4 26.4z" />
<glyph unicode="&#xe93a;" glyph-name="solid-point" data-tags="点样式1" d="M864 448c0-194.404-157.596-352-352-352s-352 157.596-352 352c0 194.404 157.596 352 352 352s352-157.596 352-352z" />
<glyph unicode="&#xe93b;" glyph-name="flag" data-tags="点样式2" d="M680 744.8c-95.2 0-95.2 100.8-240.8 100.8-72.8 0-140-22.4-196-44.8v44.8c0 28-22.4 50.4-44.8 50.4s-50.4-22.4-50.4-50.4v-845.6h95.2v347.2c0 0 50.4 100.8 196 100.8 95.2 0 95.2-100.8 240.8-100.8s196 100.8 196 100.8v397.6c0 0-50.4-100.8-196-100.8z" />
<glyph unicode="&#xe93c;" glyph-name="target" data-tags="点样式3" d="M512 601.6c-83.2 0-153.6-70.4-153.6-153.6s70.4-153.6 153.6-153.6c83.2 0 153.6 70.4 153.6 153.6s-70.4 153.6-153.6 153.6zM512 960c-281.6 0-512-230.4-512-512s230.4-512 512-512c281.6 0 512 230.4 512 512s-230.4 512-512 512zM512 38.4c-224 0-409.6 185.6-409.6 409.6s185.6 409.6 409.6 409.6c224 0 409.6-185.6 409.6-409.6s-185.6-409.6-409.6-409.6z" />
<glyph unicode="&#xe93d;" glyph-name="upload" data-tags="选择文件" horiz-adv-x="1317" d="M1053.31 738.742h-394.973l-98.742 93.258h-296.227c-54.858 0-98.742-43.886-98.742-93.258v-576c0-54.858 43.886-98.742 98.742-98.742h789.942c54.858 0 98.742 43.886 98.742 98.742v477.258c0 54.858-43.886 98.742-98.742 98.742zM855.824 398.627v-192h-98.742v192h-159.086l208.458 202.973 208.458-202.973h-159.086z" />
<glyph unicode="&#xe93e;" glyph-name="legend" data-tags="图例" horiz-adv-x="1339" d="M285.034 800c-43.323 0-75.817-32.492-75.817-70.4s32.492-70.4 75.817-70.4 75.817 32.492 75.817 70.4-32.492 70.4-75.817 70.4zM285.034 518.4c-43.323 0-75.817-32.492-75.817-70.4s32.492-70.4 75.817-70.4 75.817 32.492 75.817 70.4-32.492 70.4-75.817 70.4zM285.034 236.8c-43.323 0-75.817-32.492-75.817-70.4s32.492-70.4 75.817-70.4 75.817 32.492 75.817 70.4c0 37.908-32.492 70.4-75.817 70.4zM431.249 778.337v-92.063h698.583v92.063h-698.583zM431.249 117.663h698.583v92.063h-698.583v-92.063zM431.249 399.263h698.583v97.476h-698.583v-97.476z" />
<glyph unicode="&#xe93f;" glyph-name="table" data-tags="属性表" horiz-adv-x="1229" d="M153.624 832v-670.248c0-55.848 42.522-97.752 92.163-97.752h737.274c49.614 0 92.163 41.88 92.163 97.752v670.248h-921.601zM564.799 161.752h-319.012v286.248h319.012v-286.248zM983.038 161.752h-326.103v97.752h326.103v-97.752zM983.038 350.248h-326.103v97.752h326.103v-97.752zM983.038 545.752h-737.274v139.632h737.274v-139.632z" />
<glyph unicode="&#xe940;" glyph-name="opacity" data-tags="透明度" d="M160 800h234.673v-234.673h-234.673v234.673zM394.673 565.327h234.673v-234.673h-234.673v234.673zM160 330.673h234.673v-234.673h-234.673v234.673zM629.327 800h234.673v-234.673h-234.673v234.673zM629.327 330.673h234.673v-234.673h-234.673v234.673z" />
<glyph unicode="&#xe941;" glyph-name="solid-triangle" data-tags="三角icon" d="M714.575 542.336l-186.344-225.567c-8.85-10.797-23.613-10.797-32.463 0l-186.344 225.567c-13.936 16.785-3.691 45.003 16.299 45.003h372.556c19.992 0 30.238-28.216 16.299-45.003z" />
<glyph unicode="&#xe942;" glyph-name="eye" data-tags="隐藏icon" d="M64 441.856c0 0 398.784 589.824 896 0-497.216-562.176-896 0-896 0zM512 576c-70.656 0-128-57.28-128-128s57.344-128 128-128c70.656 0 128 57.28 128 128s-57.344 128-128 128z" />
<glyph unicode="&#xe943;" glyph-name="dropdown" data-tags="下拉展开icon" d="M512 832.001c212.096 0 384-171.904 384-384s-171.904-384-384-384c-212.096 0-384 171.904-384 384s171.904 384 384 384zM333.184 417.793l146.624-118.72c8.896-7.232 20.544-10.816 32.192-10.752 11.648-0.064 23.36 3.52 32.256 10.752l146.496 118.72c17.664 14.336 17.664 37.504 0 51.84-17.664 14.272-46.272 14.272-63.872 0l-114.88-93.056-114.816 93.056c-17.664 14.272-46.336 14.272-64 0-17.6-14.336-17.6-37.504 0-51.84v0z" />
<glyph unicode="&#xe944;" glyph-name="cad" data-tags="cad" d="M68.267 550.4v-68.267h204.8v68.267h-204.8zM750.933 550.4v-68.267h136.533v68.267h-136.533zM409.6 413.867v-68.267h136.533v68.267h-136.533zM409.6 550.4v-68.267h136.533v68.267h-136.533zM68.267 345.6v-68.267h204.8v68.267h-204.8zM750.933 345.6v-68.267h136.533v68.267h-136.533zM68.267 482.133h68.267v-136.533h-68.267v136.533zM341.333 482.133h68.267v-204.8h-68.267v204.8zM546.133 482.133h68.267v-204.8h-68.267v204.8zM682.667 550.4h68.267v-273.067h-68.267v273.067zM887.467 482.133h68.267v-136.533h-68.267v136.533zM68.267 823.467h887.467v-68.267h-887.467v68.267zM68.267 140.8h887.467v-68.267h-887.467v68.267zM68.267 755.2h68.267v-136.533h-68.267v136.533zM887.467 755.2h68.267v-136.533h-68.267v136.533zM887.467 209.067h68.267v-68.267h-68.267v68.267zM68.267 209.067h68.267v-68.267h-68.267v68.267z" />
<glyph unicode="&#xe945;" glyph-name="grid" data-tags="栅格" d="M204.8 584.533c-37.683 0-68.267 30.583-68.267 68.267s30.583 68.267 68.267 68.267c37.683 0 68.267-30.583 68.267-68.267s-30.583-68.267-68.267-68.267zM204.8 379.733c-37.683 0-68.267 30.583-68.267 68.267s30.583 68.267 68.267 68.267c37.683 0 68.267-30.583 68.267-68.267s-30.583-68.267-68.267-68.267zM204.8 174.933c-37.683 0-68.267 30.583-68.267 68.267s30.583 68.267 68.267 68.267c37.683 0 68.267-30.583 68.267-68.267s-30.583-68.267-68.267-68.267zM819.2 174.933c-37.683 0-68.267 30.583-68.267 68.267s30.583 68.267 68.267 68.267c37.683 0 68.267-30.583 68.267-68.267s-30.583-68.267-68.267-68.267zM614.4 174.933c-37.683 0-68.267 30.583-68.267 68.267s30.583 68.267 68.267 68.267c37.683 0 68.267-30.583 68.267-68.267s-30.583-68.267-68.267-68.267zM409.6 174.933c-37.683 0-68.267 30.583-68.267 68.267s30.583 68.267 68.267 68.267c37.683 0 68.267-30.583 68.267-68.267s-30.583-68.267-68.267-68.267zM409.6 584.533c-37.683 0-68.267 30.583-68.267 68.267s30.583 68.267 68.267 68.267c37.683 0 68.267-30.583 68.267-68.267s-30.583-68.267-68.267-68.267zM409.6 379.733c-37.683 0-68.267 30.583-68.267 68.267s30.583 68.267 68.267 68.267c37.683 0 68.267-30.583 68.267-68.267s-30.583-68.267-68.267-68.267zM614.4 584.533c-37.683 0-68.267 30.583-68.267 68.267s30.583 68.267 68.267 68.267c37.683 0 68.267-30.583 68.267-68.267s-30.583-68.267-68.267-68.267zM819.2 584.533c-37.683 0-68.267 30.583-68.267 68.267s30.583 68.267 68.267 68.267c37.683 0 68.267-30.583 68.267-68.267s-30.583-68.267-68.267-68.267zM614.4 379.733c-37.683 0-68.267 30.583-68.267 68.267s30.583 68.267 68.267 68.267c37.683 0 68.267-30.583 68.267-68.267s-30.583-68.267-68.267-68.267zM819.2 379.733c-37.683 0-68.267 30.583-68.267 68.267s30.583 68.267 68.267 68.267c37.683 0 68.267-30.583 68.267-68.267s-30.583-68.267-68.267-68.267z" />
<glyph unicode="&#xe946;" glyph-name="image" data-tags="影像" d="M204.8 209.067l136.533 341.333 170.667-273.067 102.4 204.8 204.8-273.067h-614.4zM682.667 550.4c-37.683 0-68.267 30.583-68.267 68.267s30.583 68.267 68.267 68.267c37.683 0 68.267-30.583 68.267-68.267s-30.583-68.267-68.267-68.267zM68.267 823.467h887.467v-68.267h-887.467v68.267zM68.267 140.8h887.467v-68.267h-887.467v68.267zM887.467 755.2h68.267v-614.4h-68.267v614.4zM68.267 755.2h68.267v-614.4h-68.267v614.4z" />
<glyph unicode="&#xe947;" glyph-name="layerStyle" data-tags="图层样式" horiz-adv-x="1242" d="M978.789 560l-410.88-176-448 192 37.12 16 410.88 176 448-192zM269.029 576l298.88-128 298.88 128-298.88 128zM941.026 480l74.88-32-448-192-448 192 74.88 32 373.12-160 373.12 160zM941.026 352l74.88-32-448-192-448 192 74.88 32 373.12-160z" />
<glyph unicode="&#xe948;" glyph-name="search-thin" data-tags="搜索-细样式" d="M470.118 832.788c-189.382 0-342.906-153.523-342.906-342.906s153.523-342.906 342.906-342.906c189.382 0 342.906 153.523 342.906 342.906s-153.523 342.906-342.906 342.906zM470.118 244.951c-135.274 0-244.931 109.661-244.931 244.931s109.661 244.931 244.931 244.931c135.274 0 244.931-109.661 244.931-244.931s-109.661-244.931-244.931-244.931zM743.982 216.126c19.131 19.131 50.146 19.131 69.276 0l69.276-69.276c19.131-19.131 19.131-50.146 0-69.276s-50.146-19.131-69.276 0l-69.276 69.276c-19.131 19.131-19.131 50.146 0 69.276z" />
<glyph unicode="&#xe949;" glyph-name="play" data-tags="播放" d="M512 896c-247.424 0-448-200.576-448-448s200.576-448 448-448c247.424 0 448 200.576 448 448s-200.576 448-448 448zM512 64.001c-212.078 0-383.999 171.923-383.999 383.999s171.923 383.999 383.999 383.999c212.078 0 383.999-171.923 383.999-383.999s-171.923-383.999-383.999-383.999zM503.040 305.279l-76.16-45.439c-19.84-12.159-42.88 5.119-42.88 31.999v312.319c0 26.241 23.039 43.519 42.88 31.999l76.16-45.439 184.319-110.719c10.137-7.149 16.677-18.811 16.677-31.999s-6.54-24.85-16.555-31.917z" />
<glyph unicode="&#xe94a;" glyph-name="pause" data-tags="暂停" d="M512 896c-247.424 0-448-200.576-448-448s200.576-448 448-448c247.424 0 448 200.576 448 448s-200.576 448-448 448zM512 64.001c-212.078 0-383.999 171.923-383.999 383.999s171.923 383.999 383.999 383.999c212.078 0 383.999-171.923 383.999-383.999s-171.923-383.999-383.999-383.999zM416 607.999c17.674 0 31.999-14.328 31.999-31.999v-255.999c0-17.674-14.328-31.999-31.999-31.999s-31.999 14.328-31.999 31.999v255.999c0 17.674 14.328 31.999 31.999 31.999zM608 607.999c17.674 0 31.999-14.328 31.999-31.999v-255.999c0-17.674-14.328-31.999-31.999-31.999s-31.999 14.328-31.999 31.999v255.999c0 17.674 14.328 31.999 31.999 31.999z" />
<glyph unicode="&#xe94b;" glyph-name="copy" data-tags="复制" horiz-adv-x="939" d="M772.221 224h-107.8v392c0 61.857-48.264 112-107.8 112h-215.6v56c0 61.857 48.264 112 107.8 112h323.4c59.534 0 107.8-50.143 107.8-112v-448c0-61.857-48.264-112-107.8-112zM597.688 560v-448c0-61.857-48.264-112-107.8-112h-323.4c-59.536 0-107.8 50.143-107.8 112v448c0 61.857 48.264 112 107.8 112h323.4c59.536 0 107.8-50.143 107.8-112v0z" />
<glyph unicode="&#xe94c;" glyph-name="zone" data-tags="空间" d="M651.096 383.37l-0.104 0.612c-1.884 10.968 3.071 26.298 11.083 34.11l106.552 103.862c7.97 7.768 5.532 15.447-5.541 17.056l-147.252 21.398c-11.013 1.601-24.064 11.048-29.014 21.081l-65.853 133.432c-4.925 9.98-12.981 10.034-17.933 0l-65.853-133.432c-4.925-9.98-17.943-19.472-29.014-21.081l-147.252-21.398c-11.013-1.601-13.555-9.248-5.541-17.056l106.552-103.862c7.97-7.768 12.974-23.082 11.083-34.11l-25.153-146.658c-1.882-10.97 4.604-15.747 14.509-10.541l131.704 69.242c9.85 5.179 25.962 5.207 35.866 0l131.706-69.242c9.848-5.179 16.4-0.487 14.509 10.541l-21.516 125.45c8.973 2.968 19.27 8.324 29.107 14.493l-12.13-2.704c-44.222-7.489-96.532-11.888-145.804-11.888-23.498 0-46.103 0.937-67.77 2.281-19.020 1.344-37.551 3.136-54.697 5.417-6.313 0.896 0.448 5.417 0.448 5.417l168.122 119.328c0 0 4.521 2.729 0 3.136-69.152 10.874-145.559 13.562-217.402 13.562h-5.417c48.791 11.322 109.801 17.634 176.268 17.634 39.343 0 76.362-2.281 110.737-6.313 0 0 19.424-2.729 28.47-4.073 7.249-0.896 0.448-5.457 0.448-5.457l-168.57-116.561c0 0-4.113-2.281 0.448-3.177 46.329-6.462 102.010-9.301 154.208-10.504zM512 0c-247.424 0-448 200.576-448 448s200.576 448 448 448c247.424 0 448-200.576 448-448s-200.576-448-448-448z" />
<glyph unicode="&#xe94d;" glyph-name="export" data-tags="导出" d="M888.052 328.722c2.209-1.104 3.312-3.865 3.312-8.283s-1.104-7.179-3.312-8.283l-155.722-112.651c-4.418-2.209-8.283-2.762-11.596-1.656s-4.971 4.418-4.971 9.939v53.012h-142.47c-7.73 0-11.596 3.865-11.596 11.596v96.085c0 6.627 3.865 9.939 11.596 9.939h140.812v53.012c0 4.418 2.209 7.73 6.627 9.939 3.312 2.209 6.627 2.209 9.939 0l157.378-112.651zM631.278 219.386c9.939 0 14.91-4.971 14.91-14.91v-96.085c0-8.836-4.971-13.255-14.91-13.255h-483.735c-9.939 0-14.91 4.418-14.91 13.255v500.302l220.33 218.675h278.312c9.939 0 14.91-4.418 14.91-13.254v-379.368c0-8.836-4.971-13.254-14.91-13.254h-54.67c-9.939 0-14.91 4.418-14.91 13.254v308.132h-178.915v-149.095c0-9.939-4.971-14.91-14.91-14.91h-150.754v-399.246h344.578v24.849c0 9.939 4.971 14.91 14.91 14.91h54.67z" />
<glyph unicode="&#xe94e;" glyph-name="qqblog" data-tags="腾讯微博" d="M511.977 896c-247.408 0-447.977-200.544-447.977-448 0-247.424 200.572-448 447.977-448 247.42 0 448.023 200.576 448.023 448 0 247.459-200.603 448-448.023 448zM376.855 155.962h-0.56c-11.075 0-20.182 9.014-20.47 20.357-3.725 137.074 52.506 217.448 93.638 257.622-16.232 27.996-15.022 64.302 5.816 91.435 27.070 35.122 76.954 41.164 111.392 13.516 34.434-27.612 40.332-78.553 13.294-113.708-24.497-31.83-67.736-39.724-101.2-20.422-34.897-33.648-85.363-103.897-81.974-227.26 0.324-11.572-8.624-21.218-19.937-21.54zM517.665 277.343c-13.903 0-27.9 1.532-41.354 4.535-11.057 2.398-18.058 13.552-15.675 24.867 2.413 11.313 13.378 18.442 24.382 15.982 10.659-2.334 21.621-3.516 32.647-3.516 84.274 0 152.81 69.959 152.81 156.089 0 86.031-68.503 156.089-152.81 156.089s-152.886-70.057-152.886-156.089c0-17.034 2.717-33.748 7.922-49.764 3.597-10.93-2.172-22.85-12.911-26.493-10.707-3.674-22.34 2.206-25.919 13.136-6.647 20.295-10.068 41.518-10.068 63.118 0 109.076 86.928 197.891 193.862 197.891 106.803 0 193.794-88.815 193.794-197.891 0.003-109.174-86.988-197.952-193.794-197.952v0z" />
<glyph unicode="&#xe94f;" glyph-name="sina" data-tags="新浪微博" d="M469.449 477.615c-85.626-9.415-150.829-60.415-144.547-115.337 5.501-54.923 80.129-91.802 165.756-82.384s150.829 60.415 144.547 115.337c-5.501 54.922-80.129 91.802-165.756 82.383zM467.88 297.154c-44.778-2.356-81.699 27.461-78.557 69.829 2.356 42.369 39.278 74.539 83.271 74.539 44.777 0 79.343-31.384 77.77-70.615-1.571-39.231-37.707-71.399-82.484-73.754v0zM475.736 381.108c-0.001-3.645 1.945-7.013 5.106-8.837s7.053-1.825 10.214 0c3.161 1.825 5.107 5.191 5.106 8.837 0.001 3.644-1.945 7.012-5.106 8.836s-7.053 1.825-10.214 0c-3.161-1.825-5.107-5.191-5.106-8.836v0zM445.098 377.185c-16.5 0-29.852-11.769-29.066-25.109 0-14.124 12.57-24.323 27.496-22.754 14.926 0.786 28.279 11.769 28.279 24.324 0.787 13.341-9.428 24.323-26.709 23.539zM511.872 895.028c-247.455 0-447.776-200.075-447.776-447.229 0-247.152 200.321-447.227 447.776-447.227s447.774 200.075 447.774 447.227c0 247.153-200.321 447.229-447.774 447.229zM641.491 558.429c-0.786 0-0.786 0 0 0h-3.142c-8.642 0-14.925 6.278-14.925 13.341s5.501 12.554 13.355 13.341c98.197 6.276 76.985-73.754 76.985-73.754-0.787-5.493-6.284-9.415-11.785-9.415-7.070 0-11.784 5.492-11.784 12.554 0 1.57 0 3.139 0.787 4.707 0.786 47.079-40.85 41.584-49.492 39.231zM716.121 391.308c0-11.769-0.787-52.569-76.985-103.567-110.767-67.477-299.299-43.938-351.152 60.415-5.501 12.555-16.5 47.859 0 87.092 9.428 24.323 81.699 112.985 103.695 123.968 18.854 19.614 79.343 47.079 106.84 40.016s33.779-37.662 26.709-60.415c-4.714-14.124 5.501-20.399 13.355-16.478 7.070 1.57 10.213 9.416 33.78 16.478 30.637 5.492 45.563 7.846 69.913-10.2 25.138-17.261 6.281-53.354 6.281-53.354s-7.070-10.985 3.143-13.341c69.913-23.539 64.417-58.844 64.417-70.612zM788.395 496.446c-2.356-9.415-10.998-15.691-20.427-15.691-10.998 0.784-19.64 10.199-19.64 21.184 0 2.356 0.787 3.922 1.571 6.276 15.712 118.477-102.91 111.415-102.91 111.415h-3.143c-10.997 0.786-18.854 10.2-18.854 21.184 0.787 10.2 7.857 18.047 17.28 18.831h4.714c176.753-10.2 141.402-163.2 141.402-163.2v0z" />
<glyph unicode="&#xe950;" glyph-name="ruler" data-tags="标尺" d="M120 683.2h784v-418.133h-784v418.133zM224.533 578.667v-209.067h574.933v209.067h-574.933zM329.067 578.667h52.267v-104.533h-52.267v104.533zM433.6 578.667h52.267v-156.8h-52.267v156.8zM538.133 578.667h52.267v-104.533h-52.267v104.533zM642.667 578.667h52.267v-156.8h-52.267v156.8z" />
<glyph unicode="&#xe951;" glyph-name="field" data-tags="字段icon" horiz-adv-x="1229" d="M192.030 800h844.8v-140.8h-844.8v140.8zM544.030 659.2h140.8v-563.2h-140.8v563.2z" />
<glyph unicode="&#xe952;" glyph-name="menu" data-tags="菜单" horiz-adv-x="1434" d="M550.438 864h748.8v-166.4h-748.8v166.4zM550.438 531.2h748.8v-166.4h-748.8v166.4zM550.438 198.4h748.8v-166.4h-748.8v166.4zM134.438 864h249.6v-166.4h-249.6v166.4zM134.438 531.2h249.6v-166.4h-249.6v166.4zM134.438 198.4h249.6v-166.4h-249.6v166.4z" />
<glyph unicode="&#xe953;" glyph-name="rename" data-tags="R" horiz-adv-x="866" d="M80.209 832.647h389.694c78.868 0 140.529-19.33 184.989-57.99s66.689-91.625 66.689-158.894c0-50.259-11.405-94.331-34.215-132.218s-59.344-63.789-109.601-77.706v-2.32c23.97-4.639 43.493-12.371 58.569-23.196s27.062-23.776 35.953-38.853c8.892-15.078 15.464-31.895 19.716-50.452s7.538-37.887 9.858-57.99c1.546-20.103 2.707-40.594 3.479-61.469s2.706-41.366 5.799-61.469c3.093-20.103 7.538-39.239 13.337-57.41s14.498-34.215 26.095-48.132h-122.94c-7.731 8.506-12.951 20.103-15.658 34.794s-4.445 31.122-5.22 49.292c-0.773 18.171-1.546 37.694-2.32 58.569s-3.093 41.366-6.958 61.469c-3.093 20.103-6.958 39.239-11.599 57.41s-11.985 34.022-22.036 47.552c-10.051 13.531-23.195 24.357-39.433 32.474s-37.887 12.178-64.948 12.178h-269.075v-353.74h-110.182v828.101zM420.032 451.071c25.516 0 49.872 1.934 73.068 5.799s43.493 11.406 60.89 22.616c17.397 11.212 31.315 26.288 41.753 45.232s15.658 43.493 15.658 73.647c0 41.753-11.599 75.774-34.794 102.063s-60.696 39.433-112.5 39.433h-273.714v-288.792h229.641z" />
<glyph unicode="&#xe954;" glyph-name="maps" data-tags="我的地图" horiz-adv-x="1161" d="M341.333 823.467l-277.931 111.172c-35.016 14.006-63.402-5.188-63.402-42.804v-751.138c0-37.646 27.933-79.338 63.402-93.525l277.931-111.172v887.467zM409.6-64l339.048 134.371v889.629l-339.048-136.533v-887.467zM819.2 72.533l277.931-111.172c35.016-14.006 63.402 5.188 63.402 42.804v751.138c0 37.646-27.933 79.338-63.402 93.525l-277.931 111.172v-887.467z" />
<glyph unicode="&#xe955;" glyph-name="new" data-tags="创建" d="M512 960c-282.77 0-512-229.23-512-512s229.23-512 512-512c282.77 0 512 229.23 512 512s-229.23 512-512 512zM455.111 163.556v227.556h-227.556c0 0-56.889 0-56.889 56.889s56.889 56.889 56.889 56.889h227.556v227.556c0 0 0 56.889 56.889 56.889s56.889-56.889 56.889-56.889v-227.556h227.556c26.64 0.080 56.889-28.444 56.889-56.889s-30.32-56.809-56.889-56.889h-227.556v-227.556c0 0 0-56.889-56.889-56.889s-56.889 56.889-56.889 56.889z" />
<glyph unicode="&#xe956;" glyph-name="feedback" data-tags="反馈" horiz-adv-x="1152" d="M128 960c-63.627 0-128-65.158-128-128v-576c0-62.838 64.373-128 128-128h64v-192l192 192h640c63.621 0 128 65.162 128 128v576c0 62.842-64.379 128-128 128zM842.667 384h-533.333c0 0-53.333 0-53.333 64s53.333 64 53.333 64h533.333c0 0 53.333 0 53.333-64s-53.333-64-53.333-64zM309.333 640c0 0-53.333 0-53.333 64s53.333 64 53.333 64h533.333c0 0 53.333 0 53.333-64s-53.333-64-53.333-64h-533.333z" />
<glyph unicode="&#xe957;" glyph-name="homepage" data-tags="首页" horiz-adv-x="967" d="M12.845 511.798c-22.188-22.188-14.993-40.176 16.654-40.176h113.837v-454.21c0-31.27 25.222-56.62 57.422-56.62h112.712c31.713 0 57.422 25.568 57.422 56.936v226.292c0 31.445 25.222 56.936 57.422 56.936h112.712c31.713 0 57.422-25.568 57.422-56.936v-226.292c0-31.445 25.222-57.065 57.422-57.231l112.712-0.58c31.713-0.163 57.422 25.095 57.422 56.454v455.251h113.837c31.386 0 38.607 18.222 16.654 40.176l-431.648 431.648c-22.188 22.188-58.398 21.953-80.352 0l-431.648-431.648z" />
<glyph unicode="&#xe958;" glyph-name="material_design_beenhere" data-tags="material_design_beenhere" d="M810.667 917.333h-597.333c-46.933 0-84.907-38.4-84.907-85.333l-0.427-551.68c0-29.44 14.933-55.467 37.547-70.827l346.453-230.827 346.027 230.827c22.613 15.36 37.547 41.387 37.547 70.827l0.427 551.68c0 46.933-38.4 85.333-85.333 85.333zM426.667 277.333l-213.333 213.333 60.16 60.16 153.173-152.747 323.84 323.84 60.16-60.587-384-384z" />
<glyph unicode="&#xe959;" glyph-name="material_design_directions" data-tags="material_design_directions" d="M926.293 478.293l-384 384c-7.693 7.709-18.33 12.478-30.080 12.478s-22.387-4.769-30.079-12.477l-384.001-384.001c-7.709-7.693-12.478-18.33-12.478-30.080s4.769-22.387 12.477-30.079l384.001-384.001c16.64-16.64 43.52-16.64 60.16 0l384 384c7.709 7.693 12.478 18.33 12.478 30.080s-4.769 22.387-12.477 30.079l-0.001 0.001zM597.333 341.333v106.667h-170.667v-128h-85.333v170.667c0 23.467 19.2 42.667 42.667 42.667h213.333v106.667l149.333-149.333-149.333-149.333z" />
<glyph unicode="&#xe95a;" glyph-name="material_design_directions_bike" data-tags="material_design_directions_bike_24px" d="M682.667 755.2c42.24 0 76.8 34.56 76.8 76.8s-34.56 76.8-76.8 76.8c-42.667 0-76.8-34.56-76.8-76.8s34.133-76.8 76.8-76.8zM810.667 448c-117.76 0-213.333-95.573-213.333-213.333s95.573-213.333 213.333-213.333 213.333 95.573 213.333 213.333-95.573 213.333-213.333 213.333zM810.667 85.333c-82.347 0-149.333 66.987-149.333 149.333s66.987 149.333 149.333 149.333 149.333-66.987 149.333-149.333-66.987-149.333-149.333-149.333zM631.467 533.333h179.2v76.8h-136.533l-82.347 139.52c-12.858 21.325-35.897 35.367-62.215 35.367-20.034 0-38.168-8.137-51.277-21.285l-157.869-157.869c-13.653-12.8-21.76-31.147-21.76-51.2 0-26.88 14.080-49.493 36.267-62.72l142.933-86.613v-213.333h76.8v276.48l-96 71.253 98.987 99.413 73.813-105.813zM213.333 448c-117.76 0-213.333-95.573-213.333-213.333s95.573-213.333 213.333-213.333 213.333 95.573 213.333 213.333-95.573 213.333-213.333 213.333zM213.333 85.333c-82.347 0-149.333 66.987-149.333 149.333s66.987 149.333 149.333 149.333 149.333-66.987 149.333-149.333-66.987-149.333-149.333-149.333z" />
<glyph unicode="&#xe95b;" glyph-name="material_design_directions_bus" data-tags="material_design_directions_bus_24px" d="M170.667 277.333c0-37.547 16.64-71.253 42.667-94.72v-75.947c0-23.467 19.2-42.667 42.667-42.667h42.667c23.467 0 42.667 19.2 42.667 42.667v42.667h341.333v-42.667c0-23.467 19.2-42.667 42.667-42.667h42.667c23.467 0 42.667 19.2 42.667 42.667v75.947c26.027 23.467 42.667 57.173 42.667 94.72v426.667c0 149.333-152.747 170.667-341.333 170.667s-341.333-21.333-341.333-170.667v-426.667zM320 234.667c-35.413 0-64 28.587-64 64s28.587 64 64 64 64-28.587 64-64-28.587-64-64-64zM704 234.667c-35.413 0-64 28.587-64 64s28.587 64 64 64 64-28.587 64-64-28.587-64-64-64zM768 490.667h-512v213.333h512v-213.333z" />
<glyph unicode="&#xe95c;" glyph-name="material_design_directions_car" data-tags="material_design_directions_car_24px" d="M807.253 703.573c-8.533 25.173-32.427 43.093-60.587 43.093h-469.333c-28.16 0-51.627-17.92-60.587-43.093l-88.747-255.573v-341.333c0-23.467 19.2-42.667 42.667-42.667h42.667c23.467 0 42.667 19.2 42.667 42.667v42.667h512v-42.667c0-23.467 19.2-42.667 42.667-42.667h42.667c23.467 0 42.667 19.2 42.667 42.667v341.333l-88.747 255.573zM277.333 277.333c-35.413 0-64 28.587-64 64s28.587 64 64 64 64-28.587 64-64-28.587-64-64-64zM746.667 277.333c-35.413 0-64 28.587-64 64s28.587 64 64 64 64-28.587 64-64-28.587-64-64-64zM213.333 490.667l64 192h469.333l64-192h-597.333z" />
<glyph unicode="&#xe95d;" glyph-name="material_design_directions_ferry" data-tags="material_design_directions_ferry_24px" d="M853.333 64c-59.307 0-118.613 20.053-170.667 56.32-104.107-72.96-237.227-72.96-341.333 0-52.053-36.267-111.36-56.32-170.667-56.32h-85.333v-85.333h85.333c58.88 0 116.907 14.933 170.667 42.24 49.593-26.016 108.347-41.283 170.667-41.283s121.073 15.266 172.726 42.262l-2.059-0.98c53.76-27.733 111.787-42.24 170.667-42.24h85.333v85.333h-85.333zM168.533 149.333h2.133c68.267 0 128.853 37.547 170.667 85.333 41.813-47.787 102.4-85.333 170.667-85.333s128.853 37.547 170.667 85.333c41.813-47.787 102.4-85.333 170.667-85.333h2.133l80.64 285.013c3.413 11.093 2.56 23.040-2.56 33.28s-14.507 17.92-25.6 21.333l-54.613 17.92v197.12c0 46.933-38.4 85.333-85.333 85.333h-128v128h-256v-128h-128c-46.933 0-85.333-38.4-85.333-85.333v-197.12l-55.040-17.92c-17.72-5.567-30.35-21.844-30.35-41.072 0-4.844 0.802-9.5 2.279-13.844l-0.089 0.303 81.067-285.013zM256 704h512v-169.387l-256 84.053-256-84.053v169.387z" />
<glyph unicode="&#xe95e;" glyph-name="material_design_directions_train" data-tags="material_design_directions_train_24px" d="M170.667 298.667c0-82.347 66.987-149.333 149.333-149.333l-64-64v-21.333h512v21.333l-64 64c82.347 0 149.333 66.987 149.333 149.333v448c0 149.333-152.747 170.667-341.333 170.667s-341.333-21.333-341.333-170.667v-448zM512 234.667c-46.933 0-85.333 38.4-85.333 85.333s38.4 85.333 85.333 85.333 85.333-38.4 85.333-85.333-38.4-85.333-85.333-85.333zM768 533.333h-512v213.333h512v-213.333z" />
<glyph unicode="&#xe95f;" glyph-name="material_design_directions_transit" data-tags="material_design__directions_transit" d="M512 874.667c-188.587 0-341.333-21.333-341.333-170.667v-405.333c0-82.347 66.987-149.333 149.333-149.333l-64-64v-21.333h512v21.333l-64 64c82.347 0 149.333 66.987 149.333 149.333v405.333c0 149.333-152.747 170.667-341.333 170.667zM320 234.667c-35.413 0-64 28.587-64 64s28.587 64 64 64 64-28.587 64-64-28.587-64-64-64zM469.333 490.667h-213.333v213.333h213.333v-213.333zM704 234.667c-35.413 0-64 28.587-64 64s28.587 64 64 64 64-28.587 64-64-28.587-64-64-64zM768 490.667h-213.333v213.333h213.333v-213.333z" />
<glyph unicode="&#xe960;" glyph-name="material_design_directions_walk" data-tags="material_design_directions_walk_24px" d="M597.333 797.867c42.374 0.024 76.715 34.38 76.715 76.757 0 42.392-34.365 76.757-76.757 76.757-42.377 0-76.733-34.341-76.757-76.712v-0.002c0-42.24 34.133-76.8 76.8-76.8zM602.453 533.333h208.213v76.8h-154.453l-85.333 142.080c-12.8 21.333-35.84 35.413-62.293 35.413-7.253 0-14.507-1.28-20.907-2.987l-231.68-72.107v-221.867h76.8v156.587l90.027 28.16-166.827-654.080h76.8l122.453 346.027 99.413-132.693v-213.333h76.8v273.493l-106.24 193.707 31.147 122.453 46.080-77.653z" />
<glyph unicode="&#xe961;" glyph-name="material_design_flight" data-tags="material_design_flight_24px" d="M896 277.333v85.333l-341.333 213.333v234.667c0 35.413-28.587 64-64 64s-64-28.587-64-64v-234.667l-341.333-213.333v-85.333l341.333 106.667v-234.667l-85.333-64v-64l149.333 42.667 149.333-42.667v64l-85.333 64v234.667l341.333-106.667z" />
<glyph unicode="&#xe962;" glyph-name="material_design_hotel" data-tags="material_design_hotel_24px" d="M298.667 405.333c70.827 0 128 57.173 128 128s-57.173 128-128 128-128-57.173-128-128 57.173-128 128-128zM810.667 661.333h-341.333v-298.667h-341.333v384h-85.333v-640h85.333v128h768v-128h85.333v384c0 94.293-76.373 170.667-170.667 170.667z" />
<glyph unicode="&#xe963;" glyph-name="material_design_local_airport" data-tags="material_design_local_airport_24px" d="M896 277.333v85.333l-341.333 213.333v234.667c0 35.413-28.587 64-64 64s-64-28.587-64-64v-234.667l-341.333-213.333v-85.333l341.333 106.667v-234.667l-85.333-64v-64l149.333 42.667 149.333-42.667v64l-85.333 64v234.667l341.333-106.667z" />
<glyph unicode="&#xe964;" glyph-name="material_design_local_atm" data-tags="material_design_local_atm_24px" d="M469.333 234.667h85.333v42.667h42.667c23.467 0 42.667 19.2 42.667 42.667v128c0 23.467-19.2 42.667-42.667 42.667h-128v42.667h170.667v85.333h-85.333v42.667h-85.333v-42.667h-42.667c-23.467 0-42.667-19.2-42.667-42.667v-128c0-23.467 19.2-42.667 42.667-42.667h128v-42.667h-170.667v-85.333h85.333v-42.667zM853.333 789.333h-682.667c-47.36 0-84.907-37.973-84.907-85.333l-0.427-512c0-47.36 37.973-85.333 85.333-85.333h682.667c47.36 0 85.333 37.973 85.333 85.333v512c0 47.36-37.973 85.333-85.333 85.333zM853.333 192h-682.667v512h682.667v-512z" />
<glyph unicode="&#xe965;" glyph-name="material_design_local_attraction" data-tags="material_design_local_attraction_24px" d="M853.333 448c0 46.933 38.4 85.333 85.333 85.333v170.667c0 46.933-38.4 85.333-85.333 85.333h-682.667c-46.933 0-84.907-38.4-84.907-85.333v-170.667c46.933 0 84.907-38.4 84.907-85.333s-37.973-85.333-85.333-85.333v-170.667c0-46.933 38.4-85.333 85.333-85.333h682.667c46.933 0 85.333 38.4 85.333 85.333v170.667c-46.933 0-85.333 38.4-85.333 85.333zM664.747 243.2l-152.747 98.133-152.747-98.133 46.080 175.787-140.373 114.773 180.907 10.667 66.133 168.107 65.707-168.533 180.907-10.667-140.373-114.773 46.507-175.36z" />
<glyph unicode="&#xe966;" glyph-name="material_design_local_bar" data-tags="material_design_local_bar_24px" d="M469.333 405.333v-256h-213.333v-85.333h512v85.333h-213.333v256l341.333 341.333v85.333h-768v-85.333l341.333-341.333zM320 661.333l-85.333 85.333h554.667l-85.333-85.333h-384z" />
<glyph unicode="&#xe967;" glyph-name="material_design_local_cafe" data-tags="material_design_local_cafe_24px" d="M853.333 832h-682.667v-426.667c0-94.293 76.373-170.667 170.667-170.667h256c94.293 0 170.667 76.373 170.667 170.667v128h85.333c47.36 0 85.333 37.973 85.333 85.333v128c0 47.36-37.973 85.333-85.333 85.333zM853.333 618.667h-85.333v128h85.333v-128zM85.333 64h768v85.333h-768v-85.333z" />
<glyph unicode="&#xe968;" glyph-name="material_design_local_car_wash" data-tags="material_design_local_car_wash_24px" d="M725.333 746.667c35.413 0 64 28.587 64 64 0 42.667-64 115.2-64 115.2s-64-72.533-64-115.2c0-35.413 28.587-64 64-64zM512 746.667c35.413 0 64 28.587 64 64 0 42.667-64 115.2-64 115.2s-64-72.533-64-115.2c0-35.413 28.587-64 64-64zM298.667 746.667c35.413 0 64 28.587 64 64 0 42.667-64 115.2-64 115.2s-64-72.533-64-115.2c0-35.413 28.587-64 64-64zM807.253 618.24c-8.533 25.173-32.427 43.093-60.587 43.093h-469.333c-28.16 0-51.627-17.92-60.587-43.093l-88.747-255.573v-341.333c0-23.467 19.2-42.667 42.667-42.667h42.667c23.467 0 42.667 19.2 42.667 42.667v42.667h512v-42.667c0-23.467 19.2-42.667 42.667-42.667h42.667c23.467 0 42.667 19.2 42.667 42.667v341.333l-88.747 255.573zM277.333 192c-35.413 0-64 28.587-64 64s28.587 64 64 64 64-28.587 64-64-28.587-64-64-64zM746.667 192c-35.413 0-64 28.587-64 64s28.587 64 64 64 64-28.587 64-64-28.587-64-64-64zM213.333 405.333l64 192h469.333l64-192h-597.333z" />
<glyph unicode="&#xe969;" glyph-name="material_design_local_convenience_store" data-tags="material_design_local_convenience_store_24px" d="M810.667 661.333v128h-597.333v-128h-128v-554.667h341.333v170.667h170.667v-170.667h341.333v554.667h-128zM469.333 533.333h-85.333v-42.667h85.333v-42.667h-128v128h85.333v42.667h-85.333v42.667h128v-128zM682.667 448h-42.667v85.333h-85.333v128h42.667v-85.333h42.667v85.333h42.667v-213.333z" />
<glyph unicode="&#xe96a;" glyph-name="material_design_local_drink" data-tags="material_design_local_drink_24px" d="M128 874.667l85.76-777.813c5.12-42.667 40.96-75.52 84.907-75.52h426.667c43.947 0 79.787 32.853 84.907 75.52l85.76 777.813h-768zM512 149.333c-70.827 0-128 57.173-128 128 0 85.333 128 230.4 128 230.4s128-145.067 128-230.4c0-70.827-57.173-128-128-128zM782.080 618.667h-540.16l-18.773 170.667h577.28l-18.347-170.667z" />
<glyph unicode="&#xe96b;" glyph-name="material_design_local_florist" data-tags="material_design_local_florist_24px" d="M512 21.333c212.077 0 384 171.923 384 384v0c-212.077 0-384-171.923-384-384v0zM238.933 522.667c0-0.031 0-0.067 0-0.104 0-58.91 47.756-106.667 106.667-106.667 22.655 0 43.66 7.063 60.934 19.106l-0.348-0.229-0.853-8.107c0-58.91 47.756-106.667 106.667-106.667s106.667 47.756 106.667 106.667v0l-0.853 8.107c17.067-11.947 37.973-18.773 60.587-18.773 58.91 0 106.667 47.756 106.667 106.667v0c0 42.667-25.173 78.933-61.013 96 35.84 17.067 61.013 53.333 61.013 96 0 0.031 0 0.067 0 0.104 0 58.91-47.756 106.667-106.667 106.667-22.655 0-43.66-7.063-60.934-19.106l0.348 0.229 0.853 8.107c0 58.91-47.756 106.667-106.667 106.667s-106.667-47.756-106.667-106.667v0l0.853-8.107c-17.067 11.947-37.973 18.773-60.587 18.773-58.91 0-106.667-47.756-106.667-106.667v0c0-42.667 25.173-78.933 61.013-96-35.84-17.067-61.013-53.333-61.013-96zM512 725.333c58.906-0.006 106.656-47.76 106.656-106.667s-47.75-106.661-106.656-106.667h-0.001c-58.906 0.006-106.656 47.76-106.656 106.667s47.75 106.661 106.656 106.667h0.001zM128 405.333c0-212.077 171.923-384 384-384v0c0 212.077-171.923 384-384 384v0z" />
<glyph unicode="&#xe96c;" glyph-name="material_design_local_gas_station" data-tags="material_design_local_gas_station_24px" d="M843.52 651.52l0.427 0.427-158.72 158.72-45.227-45.227 90.027-90.027c-40.107-15.36-68.693-53.76-68.693-99.413 0-58.91 47.756-106.667 106.667-106.667v0c15.36 0 29.44 3.413 42.667 8.96v-307.627c0-23.467-19.2-42.667-42.667-42.667s-42.667 19.2-42.667 42.667v192c0 46.933-38.4 85.333-85.333 85.333h-42.667v298.667c0 46.933-38.4 85.333-85.333 85.333h-256c-46.933 0-85.333-38.4-85.333-85.333v-682.667h426.667v320h64v-213.333c0-58.91 47.756-106.667 106.667-106.667s106.667 47.756 106.667 106.667v0 405.333c0 29.44-11.947 56.32-31.147 75.52zM512 533.333h-256v213.333h256v-213.333zM768 533.333c-23.467 0-42.667 19.2-42.667 42.667s19.2 42.667 42.667 42.667 42.667-19.2 42.667-42.667-19.2-42.667-42.667-42.667z" />
<glyph unicode="&#xe96d;" glyph-name="material_design_local_grocery_store" data-tags="material_design_local_grocery_store_24px" d="M298.667 192c-46.933 0-84.907-38.4-84.907-85.333s37.973-85.333 84.907-85.333 85.333 38.4 85.333 85.333-38.4 85.333-85.333 85.333zM42.667 874.667v-85.333h85.333l153.6-323.84-57.6-104.533c-6.827-11.947-10.667-26.027-10.667-40.96 0-46.933 38.4-85.333 85.333-85.333h512v85.333h-494.080c-5.973 0-10.667 4.693-10.667 10.667l1.28 5.12 38.4 69.547h317.867c32 0 60.16 17.493 74.667 43.947l152.747 276.907c3.242 5.883 5.149 12.895 5.149 20.352 0 23.6-19.104 42.738-42.691 42.795h-631.045l-40.107 85.333h-139.52zM725.333 192c-46.933 0-84.907-38.4-84.907-85.333s37.973-85.333 84.907-85.333 85.333 38.4 85.333 85.333-38.4 85.333-85.333 85.333z" />
<glyph unicode="&#xe96e;" glyph-name="material_design_local_hospital" data-tags="ic_local_hospital_24px" d="M810.667 832h-597.333c-46.933 0-84.907-38.4-84.907-85.333l-0.427-597.333c0-46.933 38.4-85.333 85.333-85.333h597.333c46.933 0 85.333 38.4 85.333 85.333v597.333c0 46.933-38.4 85.333-85.333 85.333zM768 362.667h-170.667v-170.667h-170.667v170.667h-170.667v170.667h170.667v170.667h170.667v-170.667h170.667v-170.667z" />
<glyph unicode="&#xe96f;" glyph-name="material_design_local_laundry_service" data-tags="ic_local_laundry_service_24px" d="M391.253 241.92c30.929-30.842 73.611-49.913 120.747-49.913s89.818 19.071 120.751 49.917l-0.004-0.004c30.842 30.929 49.913 73.611 49.913 120.747s-19.071 89.818-49.917 120.751l0.004-0.004-241.493-241.493zM768 874.24l-512 0.427c-47.36 0-85.333-37.973-85.333-85.333v-682.667c0-47.36 37.973-85.333 85.333-85.333h512c47.36 0 85.333 37.973 85.333 85.333v682.667c0 47.36-37.973 84.907-85.333 84.907zM426.667 789.333c23.467 0 42.667-19.2 42.667-42.667s-19.2-42.667-42.667-42.667-42.667 19.2-42.667 42.667 19.2 42.667 42.667 42.667zM298.667 789.333c23.467 0 42.667-19.2 42.667-42.667s-19.2-42.667-42.667-42.667-42.667 19.2-42.667 42.667 19.2 42.667 42.667 42.667zM512 106.667c-141.227 0-256 114.773-256 256s114.773 256 256 256 256-114.773 256-256-114.773-256-256-256z" />
<glyph unicode="&#xe970;" glyph-name="material_design_local_library" data-tags="ic_local_library_24px" d="M512 467.2c-100.693 93.867-235.52 151.467-384 151.467v-469.333c148.48 0 283.307-57.6 384-151.467 100.693 93.44 235.52 151.467 384 151.467v469.333c-148.48 0-283.307-57.6-384-151.467zM512 618.667c70.827 0 128 57.173 128 128s-57.173 128-128 128-128-57.173-128-128 57.173-128 128-128z" />
<glyph unicode="&#xe971;" glyph-name="material_design_local_mall" data-tags="ic_local_mall_24px" d="M810.667 704h-85.333c0 117.76-95.573 213.333-213.333 213.333s-213.333-95.573-213.333-213.333h-85.333c-46.933 0-84.907-38.4-84.907-85.333l-0.427-512c0-46.933 38.4-85.333 85.333-85.333h597.333c46.933 0 85.333 38.4 85.333 85.333v512c0 46.933-38.4 85.333-85.333 85.333zM512 832c70.827 0 128-57.173 128-128h-256c0 70.827 57.173 128 128 128zM512 405.333c-117.76 0-213.333 95.573-213.333 213.333h85.333c0-70.827 57.173-128 128-128s128 57.173 128 128h85.333c0-117.76-95.573-213.333-213.333-213.333z" />
<glyph unicode="&#xe972;" glyph-name="material_design_local_movies" data-tags="ic_local_movies_24px" d="M768 832v-85.333h-85.333v85.333h-341.333v-85.333h-85.333v85.333h-85.333v-768h85.333v85.333h85.333v-85.333h341.333v85.333h85.333v-85.333h85.333v768h-85.333zM341.333 234.667h-85.333v85.333h85.333v-85.333zM341.333 405.333h-85.333v85.333h85.333v-85.333zM341.333 576h-85.333v85.333h85.333v-85.333zM768 234.667h-85.333v85.333h85.333v-85.333zM768 405.333h-85.333v85.333h85.333v-85.333zM768 576h-85.333v85.333h85.333v-85.333z" />
<glyph unicode="&#xe973;" glyph-name="material_design_local_offer" data-tags="ic_local_offer_24px" d="M913.493 465.92l-384 384c-15.36 15.36-36.693 24.747-60.16 24.747h-298.667c-46.933 0-85.333-38.4-85.333-85.333v-298.667c0-23.467 9.387-44.8 25.173-60.587l384-384c15.36-15.36 36.693-24.747 60.16-24.747s44.8 9.387 60.16 25.173l298.667 298.667c15.787 15.36 25.173 36.693 25.173 60.16s-9.813 45.227-25.173 60.587zM234.667 661.333c-35.413 0-64 28.587-64 64s28.587 64 64 64 64-28.587 64-64-28.587-64-64-64z" />
<glyph unicode="&#xe974;" glyph-name="material_design_local_parking" data-tags="ic_local_parking_24px" d="M554.667 832h-298.667v-768h170.667v256h128c141.227 0 256 114.773 256 256s-114.773 256-256 256zM563.2 490.667h-136.533v170.667h136.533c46.933 0 85.333-38.4 85.333-85.333s-38.4-85.333-85.333-85.333z" />
<glyph unicode="&#xe975;" glyph-name="material_design_local_pharmacy" data-tags="ic_local_pharmacy_24px" d="M896 746.667h-112.64l48.64 133.973-100.267 36.693-62.293-170.667h-541.44v-85.333l85.333-256-85.333-256v-85.333h768v85.333l-85.333 256 85.333 256v85.333zM682.667 362.667h-128v-128h-85.333v128h-128v85.333h128v128h85.333v-128h128v-85.333z" />
<glyph unicode="&#xe976;" glyph-name="material_design_local_phone" data-tags="ic_local_phone_24px" d="M282.453 499.627c61.44-120.747 160.427-219.307 281.173-281.173l93.867 93.867c11.52 11.52 28.587 15.36 43.52 10.24 47.787-15.787 99.413-24.32 152.32-24.32 23.467 0 42.667-19.2 42.667-42.667v-148.907c0-23.467-19.2-42.667-42.667-42.667-400.64 0-725.333 324.693-725.333 725.333 0 23.467 19.2 42.667 42.667 42.667h149.333c23.467 0 42.667-19.2 42.667-42.667 0-53.333 8.533-104.533 24.32-152.32 4.693-14.933 1.28-31.573-10.667-43.52l-93.867-93.867z" />
<glyph unicode="&#xe977;" glyph-name="material_design_local_pizza" data-tags="ic_local_pizza_24px" d="M512 874.667c-152.32 0-288.853-65.707-383.573-170.667l383.573-682.667 383.573 682.667c-94.293 104.533-231.253 170.667-383.573 170.667zM298.667 661.333c0 46.933 38.4 85.333 85.333 85.333s85.333-38.4 85.333-85.333-38.4-85.333-85.333-85.333-85.333 38.4-85.333 85.333zM512 320c-46.933 0-85.333 38.4-85.333 85.333s38.4 85.333 85.333 85.333 85.333-38.4 85.333-85.333-38.4-85.333-85.333-85.333z" />
<glyph unicode="&#xe978;" glyph-name="material_design_local_play" data-tags="ic_local_play_24px" d="M853.333 448c0 46.933 38.4 85.333 85.333 85.333v170.667c0 46.933-38.4 85.333-85.333 85.333h-682.667c-46.933 0-84.907-38.4-84.907-85.333v-170.667c46.933 0 84.907-38.4 84.907-85.333s-37.973-85.333-85.333-85.333v-170.667c0-46.933 38.4-85.333 85.333-85.333h682.667c46.933 0 85.333 38.4 85.333 85.333v170.667c-46.933 0-85.333 38.4-85.333 85.333zM664.747 243.2l-152.747 98.133-152.747-98.133 46.080 175.787-140.373 114.773 180.907 10.667 66.133 168.107 65.707-168.533 180.907-10.667-140.373-114.773 46.507-175.36z" />
<glyph unicode="&#xe979;" glyph-name="material_design_local_post_office" data-tags="ic_local_post_office_24px" d="M853.333 789.333h-682.667c-46.933 0-84.907-38.4-84.907-85.333l-0.427-512c0-46.933 38.4-85.333 85.333-85.333h682.667c46.933 0 85.333 38.4 85.333 85.333v512c0 46.933-38.4 85.333-85.333 85.333zM853.333 618.667l-341.333-213.333-341.333 213.333v85.333l341.333-213.333 341.333 213.333v-85.333z" />
<glyph unicode="&#xe97a;" glyph-name="material_design_local_print_shop" data-tags="ic_local_print_shop_24px" d="M810.667 618.667h-597.333c-70.827 0-128-57.173-128-128v-256h170.667v-170.667h512v170.667h170.667v256c0 70.827-57.173 128-128 128zM682.667 149.333h-341.333v213.333h341.333v-213.333zM810.667 448c-23.467 0-42.667 19.2-42.667 42.667s19.2 42.667 42.667 42.667 42.667-19.2 42.667-42.667-19.2-42.667-42.667-42.667zM768 832h-512v-170.667h512v170.667z" />
<glyph unicode="&#xe97b;" glyph-name="material_design_local_restaurant" data-tags="ic_local_restaurant_24px" d="M345.6 390.827l120.747 120.747-299.52 299.093c-30.842-30.929-49.913-73.611-49.913-120.747s19.071-89.818 49.917-120.751l-0.004 0.004 178.773-178.347zM634.88 468.053c65.28-30.293 157.013-8.96 224.853 58.88 81.493 81.493 97.28 198.4 34.56 261.12-62.293 62.293-179.2 46.933-261.12-34.56-67.84-67.84-89.173-159.573-58.88-224.853l-416.427-416.427 60.16-60.16 293.973 293.12 293.547-293.547 60.16 60.16-293.547 293.547 62.72 62.72z" />
<glyph unicode="&#xe97c;" glyph-name="material_design_local_see" data-tags="ic_local_see_24px" d="M375.467 448c0-75.405 61.128-136.533 136.533-136.533s136.533 61.128 136.533 136.533v0c0 75.405-61.128 136.533-136.533 136.533s-136.533-61.128-136.533-136.533v0zM384 874.667l-78.080-85.333h-135.253c-46.933 0-85.333-38.4-85.333-85.333v-512c0-46.933 38.4-85.333 85.333-85.333h682.667c46.933 0 85.333 38.4 85.333 85.333v512c0 46.933-38.4 85.333-85.333 85.333h-135.253l-78.080 85.333h-256zM512 234.667c-117.76 0-213.333 95.573-213.333 213.333s95.573 213.333 213.333 213.333 213.333-95.573 213.333-213.333-95.573-213.333-213.333-213.333z" />
<glyph unicode="&#xe97d;" glyph-name="material_design_local_shipping" data-tags="ic_local_shipping_24px" d="M853.333 618.667h-128v170.667h-597.333c-46.933 0-85.333-38.4-85.333-85.333v-469.333h85.333c0-70.827 57.173-128 128-128s128 57.173 128 128h256c0-70.827 57.173-128 128-128s128 57.173 128 128h85.333v213.333l-128 170.667zM256 170.667c-35.413 0-64 28.587-64 64s28.587 64 64 64 64-28.587 64-64-28.587-64-64-64zM832 554.667l83.627-106.667h-190.293v106.667h106.667zM768 170.667c-35.413 0-64 28.587-64 64s28.587 64 64 64 64-28.587 64-64-28.587-64-64-64z" />
<glyph unicode="&#xe97e;" glyph-name="material_design_local_taxi" data-tags="ic_local_taxi_24px" d="M807.253 703.573c-8.533 25.173-32.427 43.093-60.587 43.093h-106.667v85.333h-256v-85.333h-106.667c-28.16 0-51.627-17.92-60.587-43.093l-88.747-255.573v-341.333c0-23.467 19.2-42.667 42.667-42.667h42.667c23.467 0 42.667 19.2 42.667 42.667v42.667h512v-42.667c0-23.467 19.2-42.667 42.667-42.667h42.667c23.467 0 42.667 19.2 42.667 42.667v341.333l-88.747 255.573zM277.333 277.333c-35.413 0-64 28.587-64 64s28.587 64 64 64 64-28.587 64-64-28.587-64-64-64zM746.667 277.333c-35.413 0-64 28.587-64 64s28.587 64 64 64 64-28.587 64-64-28.587-64-64-64zM213.333 490.667l64 192h469.333l64-192h-597.333z" />
<glyph unicode="&#xe97f;" glyph-name="material_design_location_history" data-tags="ic_location_history_24px" d="M810.667 874.667h-597.333c-47.128 0-85.333-38.205-85.333-85.333v-597.333c0-47.128 38.205-85.333 85.333-85.333v0h170.667l128-128 128 128h170.667c46.933 0 85.333 38.4 85.333 85.333v597.333c0 46.933-38.4 85.333-85.333 85.333zM512 733.867c63.573 0 115.2-51.627 115.2-115.2s-51.627-115.2-115.2-115.2c-63.573 0-115.2 51.627-115.2 115.2s51.627 115.2 115.2 115.2zM768 277.333h-512v38.4c0 85.333 170.667 132.267 256 132.267s256-46.933 256-132.267v-38.4z" />
<glyph unicode="&#xe980;" glyph-name="material_design_my_location" data-tags="ic_my_location_24px" d="M512 618.667c-94.293 0-170.667-76.373-170.667-170.667s76.373-170.667 170.667-170.667 170.667 76.373 170.667 170.667-76.373 170.667-170.667 170.667zM893.44 490.667c-20.487 178.25-160.524 318.287-336.998 338.607l-1.776 0.166v87.893h-85.333v-87.893c-178.25-20.487-318.287-160.524-338.607-336.998l-0.166-1.776h-87.893v-85.333h87.893c20.487-178.25 160.524-318.287 336.998-338.607l1.776-0.166v-87.893h85.333v87.893c178.25 20.487 318.287 160.524 338.607 336.998l0.166 1.776h87.893v85.333h-87.893zM512 149.333c-165.12 0-298.667 133.547-298.667 298.667s133.547 298.667 298.667 298.667 298.667-133.547 298.667-298.667-133.547-298.667-298.667-298.667z" />
<glyph unicode="&#xe981;" glyph-name="material_design_navigation" data-tags="ic_navigation_24px" d="M512 874.667l-320-780.373 30.293-30.293 289.707 128 289.707-128 30.293 30.293z" />
<glyph unicode="&#xe982;" glyph-name="material_design_pin_drop" data-tags="ic_pin_drop_24px" d="M768 618.667c0 141.227-114.773 256-256 256s-256-114.773-256-256c0-192 256-469.333 256-469.333s256 277.333 256 469.333zM426.667 618.667c0 46.933 38.4 85.333 85.333 85.333s85.333-38.4 85.333-85.333c0-47.128-38.205-85.333-85.333-85.333s-85.333 38.205-85.333 85.333v0zM213.333 106.667v-85.333h597.333v85.333h-597.333z" />
<glyph unicode="&#xe983;" glyph-name="material_design_place" data-tags="ic_place_24px" d="M512 874.667c-165.12 0-298.667-133.547-298.667-298.667 0-224 298.667-554.667 298.667-554.667s298.667 330.667 298.667 554.667c0 165.12-133.547 298.667-298.667 298.667zM512 469.333c-58.91 0-106.667 47.756-106.667 106.667s47.756 106.667 106.667 106.667v0c58.91 0 106.667-47.756 106.667-106.667s-47.756-106.667-106.667-106.667v0z" />
<glyph unicode="&#xe984;" glyph-name="material_design_rate_review" data-tags="ic_rate_review_24px" d="M853.333 874.667h-682.667c-46.933 0-84.907-38.4-84.907-85.333l-0.427-768 170.667 170.667h597.333c46.933 0 85.333 38.4 85.333 85.333v512c0 46.933-38.4 85.333-85.333 85.333zM256 362.667v105.387l293.547 293.547c8.533 8.533 21.76 8.533 30.293 0l75.52-75.52c8.533-8.533 8.533-21.76 0-30.293l-293.973-293.12h-105.387zM768 362.667h-320l85.333 85.333h234.667v-85.333z" />
<glyph unicode="&#xe985;" glyph-name="material_design_restaurant_menu" data-tags="ic_restaurant_menu_24px" d="M345.6 390.827l120.747 120.747-299.52 299.093c-30.842-30.929-49.913-73.611-49.913-120.747s19.071-89.818 49.917-120.751l-0.004 0.004 178.773-178.347zM634.88 468.053c65.28-30.293 157.013-8.96 224.853 58.88 81.493 81.493 97.28 198.4 34.56 261.12-62.293 62.293-179.2 46.933-261.12-34.56-67.84-67.84-89.173-159.573-58.88-224.853l-416.427-416.427 60.16-60.16 293.973 293.12 293.547-293.547 60.16 60.16-293.547 293.547 62.72 62.72z" />
<glyph unicode="&#xe986;" glyph-name="material_design_satellite" data-tags="ic_satellite_24px" d="M810.667 832h-597.333c-46.933 0-85.333-38.4-85.333-85.333v-597.333c0-46.933 38.4-85.333 85.333-85.333h597.333c46.933 0 85.333 38.4 85.333 85.333v597.333c0 46.933-38.4 85.333-85.333 85.333zM213.333 747.093h128c0-70.827-57.173-128.427-128-128.427v128.427zM213.333 448v85.333c117.76 0 213.333 96 213.333 213.76h85.333c0-165.12-133.547-299.093-298.667-299.093zM213.333 192l149.333 192 106.667-128.427 149.333 192.427 192-256h-597.333z" />
<glyph unicode="&#xe987;" glyph-name="material_design_store_mall_directory" data-tags="ic_store_mall_directory_24px" d="M853.333 789.333h-682.667v-85.333h682.667v85.333zM896 362.667v85.333l-42.667 213.333h-682.667l-42.667-213.333v-85.333h42.667v-256h426.667v256h170.667v-256h85.333v256h42.667zM512 192h-256v170.667h256v-170.667z" />
<glyph unicode="&#xe988;" glyph-name="material_design_terrain" data-tags="ic_terrain_24px" d="M597.333 704l-160-213.333 121.6-162.133-68.267-51.2c-72.107 96-192 256-192 256l-256-341.333h938.667l-384 512z" />
<glyph unicode="&#xe989;" glyph-name="material_design_traffic" data-tags="ic_traffic_24px" d="M853.333 533.333h-128v48.64c73.387 19.2 128 85.333 128 164.693h-128v42.667c0 23.467-19.2 42.667-42.667 42.667h-341.333c-23.467 0-42.667-19.2-42.667-42.667v-42.667h-128c0-79.36 54.613-145.493 128-164.693v-48.64h-128c0-79.36 54.613-145.493 128-164.693v-48.64h-128c0-79.36 54.613-145.493 128-164.693v-48.64c0-23.467 19.2-42.667 42.667-42.667h341.333c23.467 0 42.667 19.2 42.667 42.667v48.64c73.387 19.2 128 85.333 128 164.693h-128v48.64c73.387 19.2 128 85.333 128 164.693zM512 149.333c-0.574-0.014-1.251-0.022-1.929-0.022-47.128 0-85.333 38.205-85.333 85.333s38.205 85.333 85.333 85.333c0.663 0 1.325-0.008 1.985-0.023l-0.098 0.002c46.31-1.056 83.447-38.848 83.447-85.312 0-46.45-37.113-84.232-83.304-85.31l-0.1-0.002zM512 362.667c-0.574-0.014-1.251-0.022-1.929-0.022-47.128 0-85.333 38.205-85.333 85.333s38.205 85.333 85.333 85.333c0.663 0 1.325-0.008 1.985-0.023l-0.098 0.002c46.31-1.056 83.447-38.848 83.447-85.312 0-46.45-37.113-84.232-83.304-85.31l-0.1-0.002zM512 576c-47.128 0-85.333 38.205-85.333 85.333v0c0 47.36 37.973 85.333 85.333 85.333 47.128 0 85.333-38.205 85.333-85.333s-38.205-85.333-85.333-85.333v0z" />
<glyph unicode="&#xe98a;" glyph-name="others" data-tags="更多" d="M176 530.704c-13.722 8.28-30.276 13.211-47.976 13.296h-0.024c-53.019 0-96-42.981-96-96s42.981-96 96-96v0c17.568 0 33.84 5.088 48 13.344 28.56 16.608 48 47.232 48 82.656 0 35.472-19.44 66.096-48 82.704zM560 530.704c-13.722 8.28-30.276 13.211-47.976 13.296h-0.024c-17.568 0-33.84-5.040-48-13.296-28.56-16.608-48-47.232-48-82.704 0-35.424 19.44-66.048 48-82.656 14.16-8.256 30.432-13.344 48-13.344s33.84 5.088 48 13.344c28.56 16.608 48 47.232 48 82.656 0 35.472-19.44 66.096-48 82.704zM896 544c-17.568 0-33.84-5.088-48-13.296-28.56-16.656-48-47.28-48-82.704s19.44-66.048 48-82.704c14.16-8.208 30.432-13.296 48-13.296 53.019 0 96 42.981 96 96s-42.981 96-96 96v0z" />
<glyph unicode="&#xe98b;" glyph-name="server" data-tags="服务器" horiz-adv-x="1303" d="M197.792 864h907.637c41.774 0 75.637-33.863 75.637-75.637v-75.637c0-41.774-33.863-75.637-75.637-75.637h-907.637c-41.774 0-75.637 33.863-75.637 75.637v75.637c0 41.774 33.863 75.637 75.637 75.637v0zM954.157 674.909c41.774 0 75.637 33.863 75.637 75.637s-33.863 75.637-75.637 75.637c-41.774 0-75.637-33.863-75.637-75.637s33.863-75.637 75.637-75.637zM197.792 561.455h907.637c41.774 0 75.637-33.863 75.637-75.637v-75.637c0-41.774-33.863-75.637-75.637-75.637h-907.637c-41.774 0-75.637 33.863-75.637 75.637v75.637c0 41.774 33.863 75.637 75.637 75.637v0zM954.157 372.363c41.774 0 75.637 33.863 75.637 75.637s-33.863 75.637-75.637 75.637c-41.774 0-75.637-33.863-75.637-75.637s33.863-75.637 75.637-75.637zM197.792 258.908h907.637c41.774 0 75.637-33.863 75.637-75.637v-75.637c0-41.774-33.863-75.637-75.637-75.637h-907.637c-41.774 0-75.637 33.863-75.637 75.637v75.637c0 41.774 33.863 75.637 75.637 75.637v0zM954.157 69.818c41.774 0 75.637 33.863 75.637 75.637s-33.863 75.637-75.637 75.637c-41.774 0-75.637-33.863-75.637-75.637s33.863-75.637 75.637-75.637z" />
</font>
</defs>
</svg>
